  0
SECTION
  2
HEADER
  9
$ACADVER
  1
AC1015
  9
$ACADMAINTVER
 70
     6
  9
$DWGCODEPAGE
  3
DOS932
  9
$INSBASE
 10
0.0
 20
0.0
 30
0.0
  9
$EXTMIN
 10
0.0
 20
0.0
 30
0.0
  9
$EXTMAX
 10
1295.4
 20
838.2
 30
0.0
  9
$LIMMIN
 10
0.0
 20
0.0
  9
$LIMMAX
 10
1295.4
 20
838.2
  9
$ORTHOMODE
 70
     0
  9
$REGENMODE
 70
     1
  9
$FILLMODE
 70
     1
  9
$QTEXTMODE
 70
     0
  9
$MIRRTEXT
 70
     1
  9
$LTSCALE
 40
3.0
  9
$ATTMODE
 70
     1
  9
$TEXTSIZE
 40
10.5
  9
$TRACEWID
 40
1.0
  9
$TEXTSTYLE
  7
Standard
  9
$CLAYER
  8
0
  9
$CELTYPE
  6
ByLayer
  9
$CECOLOR
 62
   256
  9
$CELTSCALE
 40
1.0
  9
$DISPSILH
 70
     0
  9
$DIMSCALE
 40
1.0
  9
$DIMASZ
 40
9.906
  9
$DIMEXO
 40
3.0
  9
$DIMDLI
 40
3.75
  9
$DIMRND
 40
0.0
  9
$DIMDLE
 40
0.0
  9
$DIMEXE
 40
3.0
  9
$DIMTP
 40
0.0
  9
$DIMTM
 40
0.0
  9
$DIMTXT
 40
10.5
  9
$DIMCEN
 40
2.5
  9
$DIMTSZ
 40
0.0
  9
$DIMTOL
 70
     0
  9
$DIMLIM
 70
     0
  9
$DIMTIH
 70
     1
  9
$DIMTOH
 70
     1
  9
$DIMSE1
 70
     0
  9
$DIMSE2
 70
     0
  9
$DIMTAD
 70
     1
  9
$DIMZIN
 70
     0
  9
$DIMBLK
  1

  9
$DIMASO
 70
     1
  9
$DIMSHO
 70
     1
  9
$DIMPOST
  1

  9
$DIMAPOST
  1

  9
$DIMALT
 70
     0
  9
$DIMALTD
 70
     3
  9
$DIMALTF
 40
0.0393700787
  9
$DIMLFAC
 40
1.0
  9
$DIMTOFL
 70
     1
  9
$DIMTVP
 40
0.0
  9
$DIMTIX
 70
     0
  9
$DIMSOXD
 70
     0
  9
$DIMSAH
 70
     0
  9
$DIMBLK1
  1

  9
$DIMBLK2
  1

  9
$DIMSTYLE
  2
ISO-25
  9
$DIMCLRD
 70
     0
  9
$DIMCLRE
 70
     0
  9
$DIMCLRT
 70
     0
  9
$DIMTFAC
 40
1.0
  9
$DIMGAP
 40
4.572
  9
$DIMJUST
 70
     0
  9
$DIMSD1
 70
     0
  9
$DIMSD2
 70
     0
  9
$DIMTOLJ
 70
     0
  9
$DIMTZIN
 70
     0
  9
$DIMALTZ
 70
     0
  9
$DIMALTTZ
 70
     0
  9
$DIMUPT
 70
     0
  9
$DIMDEC
 70
     2
  9
$DIMTDEC
 70
     2
  9
$DIMALTU
 70
     2
  9
$DIMALTTD
 70
     3
  9
$DIMTXSTY
  7
Standard
  9
$DIMAUNIT
 70
     0
  9
$DIMADEC
 70
     2
  9
$DIMALTRND
 40
0.0
  9
$DIMAZIN
 70
     0
  9
$DIMDSEP
 70
    44
  9
$DIMATFIT
 70
     3
  9
$DIMFRAC
 70
     0
  9
$DIMLDRBLK
  1

  9
$DIMLUNIT
 70
     2
  9
$DIMLWD
 70
    -2
  9
$DIMLWE
 70
    -2
  9
$DIMTMOVE
 70
     0
  9
$LUNITS
 70
     2
  9
$LUPREC
 70
     3
  9
$SKETCHINC
 40
1.0
  9
$FILLETRAD
 40
10.0
  9
$AUNITS
 70
     0
  9
$AUPREC
 70
     2
  9
$MENU
  1
.
  9
$ELEVATION
 40
0.0
  9
$PELEVATION
 40
0.0
  9
$THICKNESS
 40
0.0
  9
$LIMCHECK
 70
     0
  9
$CHAMFERA
 40
0.0
  9
$CHAMFERB
 40
0.0
  9
$CHAMFERC
 40
0.0
  9
$CHAMFERD
 40
0.0
  9
$SKPOLY
 70
     0
  9
$TDCREATE
 40
2458933.766816435
  9
$TDUCREATE
 40
2458933.391816435
  9
$TDUPDATE
 40
2458933.766820868
  9
$TDUUPDATE
 40
2458933.391820868
  9
$TDINDWG
 40
0.0000000116
  9
$TDUSRTIMER
 40
0.0000000116
  9
$USRTIMER
 70
     1
  9
$ANGBASE
 50
0.0
  9
$ANGDIR
 70
     0
  9
$PDMODE
 70
     0
  9
$PDSIZE
 40
-1.0
  9
$PLINEWID
 40
0.0
  9
$SPLFRAME
 70
     0
  9
$SPLINETYPE
 70
     6
  9
$SPLINESEGS
 70
     8
  9
$HANDSEED
  5
6E4
  9
$SURFTAB1
 70
     6
  9
$SURFTAB2
 70
     6
  9
$SURFTYPE
 70
     6
  9
$SURFU
 70
     6
  9
$SURFV
 70
     6
  9
$UCSBASE
  2

  9
$UCSNAME
  2

  9
$UCSORG
 10
0.0
 20
0.0
 30
0.0
  9
$UCSXDIR
 10
1.0
 20
0.0
 30
0.0
  9
$UCSYDIR
 10
0.0
 20
1.0
 30
0.0
  9
$UCSORTHOREF
  2

  9
$UCSORTHOVIEW
 70
     0
  9
$UCSORGTOP
 10
0.0
 20
0.0
 30
0.0
  9
$UCSORGBOTTOM
 10
0.0
 20
0.0
 30
0.0
  9
$UCSORGLEFT
 10
0.0
 20
0.0
 30
0.0
  9
$UCSORGRIGHT
 10
0.0
 20
0.0
 30
0.0
  9
$UCSORGFRONT
 10
0.0
 20
0.0
 30
0.0
  9
$UCSORGBACK
 10
0.0
 20
0.0
 30
0.0
  9
$PUCSBASE
  2

  9
$PUCSNAME
  2

  9
$PUCSORG
 10
0.0
 20
0.0
 30
0.0
  9
$PUCSXDIR
 10
1.0
 20
0.0
 30
0.0
  9
$PUCSYDIR
 10
0.0
 20
1.0
 30
0.0
  9
$PUCSORTHOREF
  2

  9
$PUCSORTHOVIEW
 70
     0
  9
$PUCSORGTOP
 10
0.0
 20
0.0
 30
0.0
  9
$PUCSORGBOTTOM
 10
0.0
 20
0.0
 30
0.0
  9
$PUCSORGLEFT
 10
0.0
 20
0.0
 30
0.0
  9
$PUCSORGRIGHT
 10
0.0
 20
0.0
 30
0.0
  9
$PUCSORGFRONT
 10
0.0
 20
0.0
 30
0.0
  9
$PUCSORGBACK
 10
0.0
 20
0.0
 30
0.0
  9
$USERI1
 70
     0
  9
$USERI2
 70
     0
  9
$USERI3
 70
     0
  9
$USERI4
 70
     0
  9
$USERI5
 70
     0
  9
$USERR1
 40
0.0
  9
$USERR2
 40
0.0
  9
$USERR3
 40
0.0
  9
$USERR4
 40
0.0
  9
$USERR5
 40
0.0
  9
$WORLDVIEW
 70
     1
  9
$SHADEDGE
 70
     3
  9
$SHADEDIF
 70
    70
  9
$TILEMODE
 70
     1
  9
$MAXACTVP
 70
    64
  9
$PINSBASE
 10
0.0
 20
0.0
 30
0.0
  9
$PLIMCHECK
 70
     0
  9
$PEXTMIN
 10
1.0000000000E+20
 20
1.0000000000E+20
 30
1.0000000000E+20
  9
$PEXTMAX
 10
-1.0000000000E+20
 20
-1.0000000000E+20
 30
-1.0000000000E+20
  9
$PLIMMIN
 10
0.0
 20
0.0
  9
$PLIMMAX
 10
420.0
 20
297.0
  9
$UNITMODE
 70
     0
  9
$VISRETAIN
 70
     1
  9
$PLINEGEN
 70
     0
  9
$PSLTSCALE
 70
     1
  9
$TREEDEPTH
 70
  3020
  9
$CMLSTYLE
  2
Standard
  9
$CMLJUST
 70
     0
  9
$CMLSCALE
 40
20.0
  9
$PROXYGRAPHICS
 70
     1
  9
$MEASUREMENT
 70
     1
  9
$CELWEIGHT
370
    -1
  9
$ENDCAPS
280
     0
  9
$JOINSTYLE
280
     0
  9
$LWDISPLAY
290
     1
  9
$INSUNITS
 70
     4
  9
$HYPERLINKBASE
  1

  9
$STYLESHEET
  1

  9
$XEDIT
290
     1
  9
$CEPSNTYPE
380
     0
  9
$PSTYLEMODE
290
     1
  9
$FINGERPRINTGUID
  2
{e41e0c91-ca63-4ed5-95c0-10ed4f8c1ffe}
  9
$VERSIONGUID
  2
{FAEB1C32-E019-11D5-929B-00C0DF256EC4}
  9
$EXTNAMES
290
     1
  9
$PSVPSCALE
 40
0.0
  9
$OLESTARTUP
290
     0
  0
ENDSEC
  0
SECTION
  2
CLASSES
  0
CLASS
  1
ACDBDICTIONARYWDFLT
  2
AcDbDictionaryWithDefault
  3
ObjectDBX Classes
 90
        0
280
     0
281
     0
  0
CLASS
  1
VISUALSTYLE
  2
AcDbVisualStyle
  3
ObjectDBX Classes
 90
     4095
280
     0
281
     0
  0
CLASS
  1
MATERIAL
  2
AcDbMaterial
  3
ObjectDBX Classes
 90
     1153
280
     0
281
     0
  0
CLASS
  1
SCALE
  2
AcDbScale
  3
ObjectDBX Classes
 90
     1153
280
     0
281
     0
  0
CLASS
  1
TABLESTYLE
  2
AcDbTableStyle
  3
ObjectDBX Classes
 90
     4095
280
     0
281
     0
  0
CLASS
  1
MLEADERSTYLE
  2
AcDbMLeaderStyle
  3
ACDB_MLEADERSTYLE_CLASS
 90
     4095
280
     0
281
     0
  0
CLASS
  1
SUN
  2
AcDbSun
  3
SCENEOE
 90
     1153
280
     0
281
     0
  0
CLASS
  1
ACDBPLACEHOLDER
  2
AcDbPlaceHolder
  3
ObjectDBX Classes
 90
        0
280
     0
281
     0
  0
CLASS
  1
LAYOUT
  2
AcDbLayout
  3
ObjectDBX Classes
 90
        0
280
     0
281
     0
  0
ENDSEC
  0
SECTION
  2
TABLES
  0
TABLE
  2
VPORT
  5
8
330
0
100
AcDbSymbolTable
 70
     1
  0
VPORT
  5
29
330
8
100
AcDbSymbolTableRecord
100
AcDbViewportTableRecord
  2
*Active
 70
     0
 10
0.0
 20
0.0
 11
1.0
 21
1.0
 12
647.7
 22
419.1
 13
0.0
 23
0.0
 14
10.0
 24
10.0
 15
10.0
 25
10.0
 16
0.0
 26
0.0
 36
1.0
 17
0.0
 27
0.0
 37
0.0
 40
838.2
 41
1.5454545455
 42
50.0
 43
0.0
 44
0.0
 50
0.0
 51
0.0
 71
     0
 72
  2000
 73
     1
 74
     3
 75
     0
 76
     0
 77
     0
 78
     0
281
     0
 65
     1
110
0.0
120
0.0
130
0.0
111
1.0
121
0.0
131
0.0
112
0.0
122
1.0
132
0.0
 79
     0
146
0.0
  0
ENDTAB
  0
TABLE
  2
LTYPE
  5
5
330
0
100
AcDbSymbolTable
 70
     6
  0
LTYPE
  5
14
330
5
100
AcDbSymbolTableRecord
100
AcDbLinetypeTableRecord
  2
ByBlock
 70
     0
  3

 72
    65
 73
     0
 40
0.0
  0
LTYPE
  5
15
330
5
100
AcDbSymbolTableRecord
100
AcDbLinetypeTableRecord
  2
ByLayer
 70
     0
  3

 72
    65
 73
     0
 40
0.0
  0
LTYPE
  5
16
330
5
100
AcDbSymbolTableRecord
100
AcDbLinetypeTableRecord
  2
Continuous
 70
     0
  3
Solid line
 72
    65
 73
     0
 40
0.0
  0
LTYPE
  5
6E
330
5
100
AcDbSymbolTableRecord
100
AcDbLinetypeTableRecord
  2
HIDDEN
 70
     0
  3
Hidden __ __ __ __ __ __ __ __ __ __ __ __ __ __
 72
    65
 73
     2
 40
1.905
 49
1.27
 74
     0
 49
-0.635
 74
     0
  0
LTYPE
  5
6F
330
5
100
AcDbSymbolTableRecord
100
AcDbLinetypeTableRecord
  2
PHANTOM
 70
     0
  3
Phantom ______  __  __  ______  __  __  ______
 72
    65
 73
     6
 40
12.7
 49
6.35
 74
     0
 49
-1.27
 74
     0
 49
1.27
 74
     0
 49
-1.27
 74
     0
 49
1.27
 74
     0
 49
-1.27
 74
     0
  0
LTYPE
  5
70
330
5
100
AcDbSymbolTableRecord
100
AcDbLinetypeTableRecord
  2
CENTER
 70
     0
  3
Center ____ _ ____ _ ____ _ ____ _ ____ _ ____
 72
    65
 73
     4
 40
10.16
 49
6.35
 74
     0
 49
-1.27
 74
     0
 49
1.27
 74
     0
 49
-1.27
 74
     0
  0
LTYPE
  5
71
330
5
100
AcDbSymbolTableRecord
100
AcDbLinetypeTableRecord
  2
CENTERX2
 70
     0
  3
Center (2x) ________  __  ________  __  _____
 72
    65
 73
     4
 40
20.32
 49
12.7
 74
     0
 49
-2.54
 74
     0
 49
2.54
 74
     0
 49
-2.54
 74
     0
  0
LTYPE
  5
72
330
5
100
AcDbSymbolTableRecord
100
AcDbLinetypeTableRecord
  2
DOT2
 70
     0
  3
Dot (.5x) ........................................
 72
    65
 73
     2
 40
0.635
 49
0.0
 74
     0
 49
-0.635
 74
     0
  0
ENDTAB
  0
TABLE
  2
LAYER
  5
2
330
0
100
AcDbSymbolTable
 70
    42
  0
LAYER
  5
10
330
2
100
AcDbSymbolTableRecord
100
AcDbLayerTableRecord
  2
0
 70
     0
 62
     7
  6
Continuous
370
    -3
390
F
  0
LAYER
  5
73
330
2
100
AcDbSymbolTableRecord
100
AcDbLayerTableRecord
  2
FORMAT
 70
     0
 62
     7
  6
Continuous
370
    -3
390
F
  0
LAYER
  5
74
330
2
100
AcDbSymbolTableRecord
100
AcDbLayerTableRecord
  2
SLD-0
 70
     0
 62
   179
  6
Continuous
370
    -3
390
F
  0
LAYER
  5
75
330
2
100
AcDbSymbolTableRecord
100
AcDbLayerTableRecord
  2
AM_0
 70
     0
 62
     7
  6
Continuous
370
    25
390
F
  0
LAYER
  5
76
330
2
100
AcDbSymbolTableRecord
100
AcDbLayerTableRecord
  2
AM_7
 70
     0
 62
     4
  6
CENTERX2
370
    25
390
F
  0
LAYER
  5
77
330
2
100
AcDbSymbolTableRecord
100
AcDbLayerTableRecord
  2
AM_5
 70
     0
 62
     7
  6
Continuous
370
    25
390
F
  0
LAYER
  5
78
330
2
100
AcDbSymbolTableRecord
100
AcDbLayerTableRecord
  2
AM_3
 70
     0
 62
     6
  6
HIDDEN
370
    25
390
F
  0
LAYER
  5
79
330
2
100
AcDbSymbolTableRecord
100
AcDbLayerTableRecord
  2
AM_BOR
 70
     0
 62
   179
  6
Continuous
370
    50
390
F
  0
LAYER
  5
7A
330
2
100
AcDbSymbolTableRecord
100
AcDbLayerTableRecord
  2
CSLAYER1
 70
     0
 62
   179
  6
Continuous
370
    -3
390
F
  0
LAYER
  5
7B
330
2
100
AcDbSymbolTableRecord
100
AcDbLayerTableRecord
  2
CSLAYER241
 70
     0
 62
   179
  6
Continuous
370
    -3
390
F
  0
LAYER
  5
7C
330
2
100
AcDbSymbolTableRecord
100
AcDbLayerTableRecord
  2
AM_1
 70
     0
 62
    14
  6
Continuous
370
    -3
390
F
  0
LAYER
  5
7D
330
2
100
AcDbSymbolTableRecord
100
AcDbLayerTableRecord
  2
SLD-DEFPOINTS
 70
     0
 62
   179
  6
Continuous
370
    -3
390
F
  0
LAYER
  5
7E
330
2
100
AcDbSymbolTableRecord
100
AcDbLayerTableRecord
  2
001
 70
     0
 62
   179
  6
Continuous
370
    -3
390
F
  0
LAYER
  5
7F
330
2
100
AcDbSymbolTableRecord
100
AcDbLayerTableRecord
  2
部品
 70
     0
 62
     5
  6
Continuous
370
    -3
390
F
  0
LAYER
  5
80
330
2
100
AcDbSymbolTableRecord
100
AcDbLayerTableRecord
  2
寸法線
 70
     0
 62
    84
  6
Continuous
370
    -3
390
F
  0
LAYER
  5
81
330
2
100
AcDbSymbolTableRecord
100
AcDbLayerTableRecord
  2
可見_(ISO)
 70
     0
 62
   179
  6
Continuous
370
    35
390
F
  0
LAYER
  5
82
330
2
100
AcDbSymbolTableRecord
100
AcDbLayerTableRecord
  2
窄部可見_(ISO)
 70
     0
 62
     3
  6
Continuous
370
    25
390
F
  0
LAYER
  5
83
330
2
100
AcDbSymbolTableRecord
100
AcDbLayerTableRecord
  2
AM_6
 70
     0
 62
     2
  6
Continuous
370
    25
390
F
  0
LAYER
  5
84
330
2
100
AcDbSymbolTableRecord
100
AcDbLayerTableRecord
  2
AM_4
 70
     0
 62
     3
  6
Continuous
370
    25
390
F
  0
LAYER
  5
85
330
2
100
AcDbSymbolTableRecord
100
AcDbLayerTableRecord
  2
AM_8
 70
     0
 62
     1
  6
Continuous
370
    -3
390
F
  0
LAYER
  5
86
330
2
100
AcDbSymbolTableRecord
100
AcDbLayerTableRecord
  2
AM_9
 70
     0
 62
     9
  6
Continuous
370
    -3
390
F
  0
LAYER
  5
87
330
2
100
AcDbSymbolTableRecord
100
AcDbLayerTableRecord
  2
AM_12
 70
     0
 62
   179
  6
Continuous
370
    50
390
F
  0
LAYER
  5
88
330
2
100
AcDbSymbolTableRecord
100
AcDbLayerTableRecord
  2
AM_PAREF
 70
     0
 62
     4
  6
Continuous
370
    25
390
F
  0
LAYER
  5
89
330
2
100
AcDbSymbolTableRecord
100
AcDbLayerTableRecord
  2
DIM
 70
     0
 62
     2
  6
Continuous
370
    -3
390
F
  0
LAYER
  5
8A
330
2
100
AcDbSymbolTableRecord
100
AcDbLayerTableRecord
  2
CEN
 70
     0
 62
     2
  6
CENTER
370
    -3
390
F
  0
LAYER
  5
8B
330
2
100
AcDbSymbolTableRecord
100
AcDbLayerTableRecord
  2
DAS
 70
     0
 62
     6
  6
HIDDEN
370
    -3
390
F
  0
LAYER
  5
8C
330
2
100
AcDbSymbolTableRecord
100
AcDbLayerTableRecord
  2
HAT
 70
     0
 62
     4
  6
Continuous
370
    -3
390
F
  0
LAYER
  5
8D
330
2
100
AcDbSymbolTableRecord
100
AcDbLayerTableRecord
  2
AM_0N
 70
     0
 62
   179
  6
Continuous
370
    50
390
F
  0
LAYER
  5
8E
330
2
100
AcDbSymbolTableRecord
100
AcDbLayerTableRecord
  2
AM_11
 70
     0
 62
     3
  6
PHANTOM
370
    25
390
F
  0
LAYER
  5
8F
330
2
100
AcDbSymbolTableRecord
100
AcDbLayerTableRecord
  2
AM_2
 70
     0
 62
     5
  6
Continuous
370
    25
390
F
  0
LAYER
  5
90
330
2
100
AcDbSymbolTableRecord
100
AcDbLayerTableRecord
  2
TEXT
 70
     0
 62
     2
  6
Continuous
370
    -3
390
F
  0
LAYER
  5
91
330
2
100
AcDbSymbolTableRecord
100
AcDbLayerTableRecord
  2
DIMENSION
 70
     0
 62
     2
  6
Continuous
370
    25
390
F
  0
LAYER
  5
92
330
2
100
AcDbSymbolTableRecord
100
AcDbLayerTableRecord
  2
MAIN_SHAPE
 70
     0
 62
   255
  6
Continuous
370
    25
390
F
  0
LAYER
  5
93
330
2
100
AcDbSymbolTableRecord
100
AcDbLayerTableRecord
  2
INVINSIBLE_LINE
 70
     0
 62
    41
  6
DOT2
370
    25
390
F
  0
LAYER
  5
94
330
2
100
AcDbSymbolTableRecord
100
AcDbLayerTableRecord
  2
KEPALA_GAMBAR
 70
     0
 62
     2
  6
Continuous
370
    25
390
F
  0
LAYER
  5
95
330
2
100
AcDbSymbolTableRecord
100
AcDbLayerTableRecord
  2
ARSIR_DALAM
 70
     0
 62
    21
  6
Continuous
370
    25
390
F
  0
LAYER
  5
96
330
2
100
AcDbSymbolTableRecord
100
AcDbLayerTableRecord
  2
ARSIR_LUAR
 70
     0
 62
    30
  6
Continuous
370
    25
390
F
  0
LAYER
  5
97
330
2
100
AcDbSymbolTableRecord
100
AcDbLayerTableRecord
  2
GARIS_TEPI
 70
     0
 62
     2
  6
Continuous
370
    50
390
F
  0
LAYER
  5
98
330
2
100
AcDbSymbolTableRecord
100
AcDbLayerTableRecord
  2
FINISHING
 70
     0
 62
   102
  6
Continuous
370
    25
390
F
  0
LAYER
  5
99
330
2
100
AcDbSymbolTableRecord
100
AcDbLayerTableRecord
  2
PROSES
 70
     0
 62
   120
  6
Continuous
370
    25
390
F
  0
LAYER
  5
9A
330
2
100
AcDbSymbolTableRecord
100
AcDbLayerTableRecord
  2
1
 70
     0
 62
   179
  6
Continuous
370
    -3
390
F
  0
LAYER
  5
9B
330
2
100
AcDbSymbolTableRecord
100
AcDbLayerTableRecord
  2
GARIS_POTONG
 70
     0
 62
     2
  6
Continuous
370
    25
390
F
  0
ENDTAB
  0
TABLE
  2
STYLE
  5
3
330
0
100
AcDbSymbolTable
 70
     4
  0
STYLE
  5
11
330
3
100
AcDbSymbolTableRecord
100
AcDbTextStyleTableRecord
  2
Standard
 70
     0
 40
0.0
 41
1.0
 50
0.0
 71
     0
 42
10.5
  3
txt
  4
bigfont
  0
STYLE
  5
340
330
3
100
AcDbSymbolTableRecord
100
AcDbTextStyleTableRecord
  2
SLDTEXTSTYLE0
 70
     0
 40
0.0
 41
0.7
 50
0.0
 71
     0
 42
10.5
  3
TXT
  4
bigfont
  0
STYLE
  5
3A6
330
3
100
AcDbSymbolTableRecord
100
AcDbTextStyleTableRecord
  2
SLDTEXTSTYLE1
 70
     0
 40
0.0
 41
0.7225806049
 50
0.0
 71
     0
 42
10.5
  3
TXT
  4
bigfont
  0
STYLE
  5
3EC
330
3
100
AcDbSymbolTableRecord
100
AcDbTextStyleTableRecord
  2
SLDTEXTSTYLE2
 70
     0
 40
0.0
 41
0.75
 50
0.0
 71
     0
 42
10.5
  3
TXT
  4
bigfont
  0
ENDTAB
  0
TABLE
  2
VIEW
  5
6
330
0
100
AcDbSymbolTable
 70
     0
  0
ENDTAB
  0
TABLE
  2
UCS
  5
7
330
0
100
AcDbSymbolTable
 70
     0
  0
ENDTAB
  0
TABLE
  2
APPID
  5
9
330
0
100
AcDbSymbolTable
 70
     1
  0
APPID
  5
12
330
9
100
AcDbSymbolTableRecord
100
AcDbRegAppTableRecord
  2
ACAD
 70
     0
  0
ENDTAB
  0
TABLE
  2
DIMSTYLE
  5
A
330
0
100
AcDbSymbolTable
 70
     5
100
AcDbDimStyleTable
  0
DIMSTYLE
105
27
330
A
100
AcDbSymbolTableRecord
100
AcDbDimStyleTableRecord
  2
ISO-25
 70
     0
 41
2.5
 42
0.625
 43
3.75
 44
1.25
 73
     0
 74
     0
 77
     1
 78
     8
140
2.5
141
2.5
143
0.0393700787
147
0.625
171
     3
172
     1
178
     0
271
     2
272
     2
274
     3
278
    44
283
     0
284
     8
340
11
  0
DIMSTYLE
105
3ED
102
{ACAD_REACTORS
330
3EB
330
406
330
410
330
557
330
57E
330
588
330
65D
102
}
330
A
100
AcDbSymbolTableRecord
100
AcDbDimStyleTableRecord
  2
SLDDIMSTYLE0
 70
     0
 41
9.906
 44
0.0
 45
0.000000001
 73
     0
 74
     0
 77
     1
 78
    12
 79
     3
140
10.5
147
2.625
173
     1
178
     0
271
     2
272
     2
276
     2
284
    12
340
3EC
341
3EE
343
3EE
344
3EE
  0
DIMSTYLE
105
3FC
102
{ACAD_REACTORS
330
3FB
330
504
330
54E
330
62A
330
653
330
6D1
102
}
330
A
100
AcDbSymbolTableRecord
100
AcDbDimStyleTableRecord
  2
SLDDIMSTYLE1
 70
     0
 41
9.906
 44
0.0
 45
0.000000001
 73
     0
 74
     0
 77
     1
 78
    12
 79
     3
140
10.5
147
2.625
173
     1
178
     0
271
     1
272
     1
276
     2
284
    12
340
3EC
341
3EE
343
3EE
344
3EE
  0
DIMSTYLE
105
6BC
330
A
100
AcDbSymbolTableRecord
100
AcDbDimStyleTableRecord
  2
SLDDIMSTYLE2
 70
     0
 41
9.906
 44
0.0
 45
0.000000001
146
9.906
147
0.0
173
     1
178
     0
271
     0
272
     0
276
     2
340
11
  0
DIMSTYLE
105
6DC
102
{ACAD_REACTORS
330
6DB
102
}
330
A
100
AcDbSymbolTableRecord
100
AcDbDimStyleTableRecord
  2
SLDDIMSTYLE3
 70
     0
 41
9.906
 44
0.0
 73
     0
 74
     0
 77
     1
 78
    12
 79
     3
140
10.5
144
3.0
147
2.625
173
     1
178
     0
179
     2
272
     2
276
     2
284
    12
340
3EC
  0
ENDTAB
  0
TABLE
  2
BLOCK_RECORD
  5
1
330
0
100
AcDbSymbolTable
 70
    52
  0
BLOCK_RECORD
  5
1F
330
1
100
AcDbSymbolTableRecord
100
AcDbBlockTableRecord
  2
*Model_Space
340
22
  0
BLOCK_RECORD
  5
1B
330
1
100
AcDbSymbolTableRecord
100
AcDbBlockTableRecord
  2
*Paper_Space
340
1E
  0
BLOCK_RECORD
  5
23
330
1
100
AcDbSymbolTableRecord
100
AcDbBlockTableRecord
  2
*Paper_Space0
340
26
  0
BLOCK_RECORD
  5
9C
330
1
100
AcDbSymbolTableRecord
100
AcDbBlockTableRecord
  2
BLKF0004_1
340
0
102
{BLKREFS
331
37D
102
}
  0
BLOCK_RECORD
  5
310
330
1
100
AcDbSymbolTableRecord
100
AcDbBlockTableRecord
  2
ﾌﾞﾛｯｸ10
340
0
102
{BLKREFS
331
387
102
}
  0
BLOCK_RECORD
  5
33D
330
1
100
AcDbSymbolTableRecord
100
AcDbBlockTableRecord
  2
SW_NOTE_0
340
0
102
{BLKREFS
331
343
102
}
  0
BLOCK_RECORD
  5
344
330
1
100
AcDbSymbolTableRecord
100
AcDbBlockTableRecord
  2
SW_NOTE_0_1
340
0
102
{BLKREFS
331
349
102
}
  0
BLOCK_RECORD
  5
34A
330
1
100
AcDbSymbolTableRecord
100
AcDbBlockTableRecord
  2
SW_NOTE_0_2
340
0
102
{BLKREFS
331
34F
102
}
  0
BLOCK_RECORD
  5
350
330
1
100
AcDbSymbolTableRecord
100
AcDbBlockTableRecord
  2
SW_NOTE_0_3
340
0
102
{BLKREFS
331
355
102
}
  0
BLOCK_RECORD
  5
356
330
1
100
AcDbSymbolTableRecord
100
AcDbBlockTableRecord
  2
SW_NOTE_0_4
340
0
102
{BLKREFS
331
35B
102
}
  0
BLOCK_RECORD
  5
35C
330
1
100
AcDbSymbolTableRecord
100
AcDbBlockTableRecord
  2
SW_NOTE_0_5
340
0
102
{BLKREFS
331
361
102
}
  0
BLOCK_RECORD
  5
362
330
1
100
AcDbSymbolTableRecord
100
AcDbBlockTableRecord
  2
SW_NOTE_0_6
340
0
102
{BLKREFS
331
367
102
}
  0
BLOCK_RECORD
  5
368
330
1
100
AcDbSymbolTableRecord
100
AcDbBlockTableRecord
  2
SW_NOTE_0_7
340
0
102
{BLKREFS
331
36D
102
}
  0
BLOCK_RECORD
  5
36E
330
1
100
AcDbSymbolTableRecord
100
AcDbBlockTableRecord
  2
SW_NOTE_0_8
340
0
102
{BLKREFS
331
373
102
}
  0
BLOCK_RECORD
  5
392
330
1
100
AcDbSymbolTableRecord
100
AcDbBlockTableRecord
  2
SW_NOTE_0_9
340
0
102
{BLKREFS
331
39B
102
}
  0
BLOCK_RECORD
  5
3EE
330
1
100
AcDbSymbolTableRecord
100
AcDbBlockTableRecord
  2
_Oblique
340
0
102
{BLKREFS
331
3F5
331
3F6
331
400
331
401
331
40A
331
40B
331
414
331
415
331
508
331
509
331
552
331
553
331
55B
331
55C
331
582
331
583
331
58C
331
58D
331
62E
331
62F
331
657
331
658
331
661
331
662
331
6D5
331
6D6
102
}
  0
BLOCK_RECORD
  5
3F2
330
1
100
AcDbSymbolTableRecord
100
AcDbBlockTableRecord
  2
_D
340
0
  0
BLOCK_RECORD
  5
3FD
330
1
100
AcDbSymbolTableRecord
100
AcDbBlockTableRecord
  2
_D_1
340
0
  0
BLOCK_RECORD
  5
407
330
1
100
AcDbSymbolTableRecord
100
AcDbBlockTableRecord
  2
_D_2
340
0
  0
BLOCK_RECORD
  5
411
330
1
100
AcDbSymbolTableRecord
100
AcDbBlockTableRecord
  2
_D_3
340
0
  0
BLOCK_RECORD
  5
419
330
1
100
AcDbSymbolTableRecord
100
AcDbBlockTableRecord
  2
SW_CENTERMARKSYMBOL_0
340
0
102
{BLKREFS
331
424
102
}
  0
BLOCK_RECORD
  5
425
330
1
100
AcDbSymbolTableRecord
100
AcDbBlockTableRecord
  2
SW_CENTERMARKSYMBOL_1
340
0
102
{BLKREFS
331
430
102
}
  0
BLOCK_RECORD
  5
431
330
1
100
AcDbSymbolTableRecord
100
AcDbBlockTableRecord
  2
SW_CENTERMARKSYMBOL_2
340
0
102
{BLKREFS
331
43C
102
}
  0
BLOCK_RECORD
  5
43D
330
1
100
AcDbSymbolTableRecord
100
AcDbBlockTableRecord
  2
SW_CENTERMARKSYMBOL_3
340
0
102
{BLKREFS
331
448
102
}
  0
BLOCK_RECORD
  5
449
330
1
100
AcDbSymbolTableRecord
100
AcDbBlockTableRecord
  2
SW_CENTERMARKSYMBOL_4
340
0
102
{BLKREFS
331
454
102
}
  0
BLOCK_RECORD
  5
455
330
1
100
AcDbSymbolTableRecord
100
AcDbBlockTableRecord
  2
SW_CENTERMARKSYMBOL_5
340
0
102
{BLKREFS
331
460
102
}
  0
BLOCK_RECORD
  5
461
330
1
100
AcDbSymbolTableRecord
100
AcDbBlockTableRecord
  2
SW_CENTERMARKSYMBOL_6
340
0
102
{BLKREFS
331
46C
102
}
  0
BLOCK_RECORD
  5
46D
330
1
100
AcDbSymbolTableRecord
100
AcDbBlockTableRecord
  2
SW_CENTERMARKSYMBOL_7
340
0
102
{BLKREFS
331
478
102
}
  0
BLOCK_RECORD
  5
4C4
330
1
100
AcDbSymbolTableRecord
100
AcDbBlockTableRecord
  2
SW_CENTERMARKSYMBOL_8
340
0
102
{BLKREFS
331
4CF
102
}
  0
BLOCK_RECORD
  5
4D0
330
1
100
AcDbSymbolTableRecord
100
AcDbBlockTableRecord
  2
SW_CENTERMARKSYMBOL_9
340
0
102
{BLKREFS
331
4DB
102
}
  0
BLOCK_RECORD
  5
4DC
330
1
100
AcDbSymbolTableRecord
100
AcDbBlockTableRecord
  2
SW_CENTERMARKSYMBOL_10
340
0
102
{BLKREFS
331
4E7
102
}
  0
BLOCK_RECORD
  5
505
330
1
100
AcDbSymbolTableRecord
100
AcDbBlockTableRecord
  2
_D_4
340
0
  0
BLOCK_RECORD
  5
54F
330
1
100
AcDbSymbolTableRecord
100
AcDbBlockTableRecord
  2
_D_5
340
0
  0
BLOCK_RECORD
  5
558
330
1
100
AcDbSymbolTableRecord
100
AcDbBlockTableRecord
  2
_D_6
340
0
  0
BLOCK_RECORD
  5
57F
330
1
100
AcDbSymbolTableRecord
100
AcDbBlockTableRecord
  2
_D_7
340
0
  0
BLOCK_RECORD
  5
589
330
1
100
AcDbSymbolTableRecord
100
AcDbBlockTableRecord
  2
_D_8
340
0
  0
BLOCK_RECORD
  5
592
330
1
100
AcDbSymbolTableRecord
100
AcDbBlockTableRecord
  2
SW_CENTERMARKSYMBOL_11
340
0
102
{BLKREFS
331
59D
102
}
  0
BLOCK_RECORD
  5
59E
330
1
100
AcDbSymbolTableRecord
100
AcDbBlockTableRecord
  2
SW_CENTERMARKSYMBOL_12
340
0
102
{BLKREFS
331
5A9
102
}
  0
BLOCK_RECORD
  5
5AA
330
1
100
AcDbSymbolTableRecord
100
AcDbBlockTableRecord
  2
SW_CENTERMARKSYMBOL_13
340
0
102
{BLKREFS
331
5B5
102
}
  0
BLOCK_RECORD
  5
5B6
330
1
100
AcDbSymbolTableRecord
100
AcDbBlockTableRecord
  2
SW_CENTERMARKSYMBOL_14
340
0
102
{BLKREFS
331
5C1
102
}
  0
BLOCK_RECORD
  5
5C2
330
1
100
AcDbSymbolTableRecord
100
AcDbBlockTableRecord
  2
SW_CENTERMARKSYMBOL_15
340
0
102
{BLKREFS
331
5CD
102
}
  0
BLOCK_RECORD
  5
5CE
330
1
100
AcDbSymbolTableRecord
100
AcDbBlockTableRecord
  2
SW_CENTERMARKSYMBOL_16
340
0
102
{BLKREFS
331
5D9
102
}
  0
BLOCK_RECORD
  5
5DA
330
1
100
AcDbSymbolTableRecord
100
AcDbBlockTableRecord
  2
SW_CENTERMARKSYMBOL_17
340
0
102
{BLKREFS
331
5E5
102
}
  0
BLOCK_RECORD
  5
5E6
330
1
100
AcDbSymbolTableRecord
100
AcDbBlockTableRecord
  2
SW_CENTERMARKSYMBOL_18
340
0
102
{BLKREFS
331
5F1
102
}
  0
BLOCK_RECORD
  5
62B
330
1
100
AcDbSymbolTableRecord
100
AcDbBlockTableRecord
  2
_D_9
340
0
  0
BLOCK_RECORD
  5
654
330
1
100
AcDbSymbolTableRecord
100
AcDbBlockTableRecord
  2
_D_10
340
0
  0
BLOCK_RECORD
  5
65E
330
1
100
AcDbSymbolTableRecord
100
AcDbBlockTableRecord
  2
_D_11
340
0
  0
BLOCK_RECORD
  5
667
330
1
100
AcDbSymbolTableRecord
100
AcDbBlockTableRecord
  2
SW_CENTERMARKSYMBOL_19
340
0
102
{BLKREFS
331
672
102
}
  0
BLOCK_RECORD
  5
673
330
1
100
AcDbSymbolTableRecord
100
AcDbBlockTableRecord
  2
SW_CENTERMARKSYMBOL_20
340
0
102
{BLKREFS
331
67E
102
}
  0
BLOCK_RECORD
  5
67F
330
1
100
AcDbSymbolTableRecord
100
AcDbBlockTableRecord
  2
SW_CENTERMARKSYMBOL_21
340
0
102
{BLKREFS
331
68A
102
}
  0
BLOCK_RECORD
  5
68B
330
1
100
AcDbSymbolTableRecord
100
AcDbBlockTableRecord
  2
SW_CENTERMARKSYMBOL_22
340
0
102
{BLKREFS
331
696
102
}
  0
BLOCK_RECORD
  5
6B6
330
1
100
AcDbSymbolTableRecord
100
AcDbBlockTableRecord
  2
SW_NOTE_0_10
340
0
102
{BLKREFS
331
6BB
102
}
  0
BLOCK_RECORD
  5
6D2
330
1
100
AcDbSymbolTableRecord
100
AcDbBlockTableRecord
  2
_D_12
340
0
  0
BLOCK_RECORD
  5
6DD
330
1
100
AcDbSymbolTableRecord
100
AcDbBlockTableRecord
  2
_D_13
340
0
  0
ENDTAB
  0
ENDSEC
  0
SECTION
  2
BLOCKS
  0
BLOCK
  5
20
330
1F
100
AcDbEntity
  8
0
100
AcDbBlockBegin
  2
*Model_Space
 70
     0
 10
0.0
 20
0.0
 30
0.0
  3
*Model_Space
  1

  0
ENDBLK
  5
21
330
1F
100
AcDbEntity
  8
0
100
AcDbBlockEnd
  0
BLOCK
  5
1C
330
1B
100
AcDbEntity
 67
     1
  8
0
100
AcDbBlockBegin
  2
*Paper_Space
 70
     0
 10
0.0
 20
0.0
 30
0.0
  3
*Paper_Space
  1

  0
ENDBLK
  5
1D
330
1B
100
AcDbEntity
 67
     1
  8
0
100
AcDbBlockEnd
  0
BLOCK
  5
24
330
23
100
AcDbEntity
  8
0
100
AcDbBlockBegin
  2
*Paper_Space0
 70
     0
 10
0.0
 20
0.0
 30
0.0
  3
*Paper_Space0
  1

  0
ENDBLK
  5
25
330
23
100
AcDbEntity
  8
0
100
AcDbBlockEnd
  0
BLOCK
  5
9D
330
9C
100
AcDbEntity
  8
0
100
AcDbBlockBegin
  2
BLKF0004_1
 70
     0
 10
0.0
 20
0.0
 30
0.0
  3
BLKF0004_1
  1

  0
ARC
  5
9F
330
9C
100
AcDbEntity
  8
AM_BOR
  6
Continuous
 62
   179
100
AcDbCircle
 10
246.397041
 20
12.643743
 30
0.0
 40
0.5931202500000241
100
AcDbArc
 50
281.578883
 51
335.897765
  0
ARC
  5
A0
330
9C
100
AcDbEntity
  8
AM_BOR
  6
Continuous
 62
   179
100
AcDbCircle
 10
246.8834235
 20
12.60700425
 30
0.0
 40
0.8774234709624051
100
AcDbArc
 50
270.0
 51
335.8977443226
  0
ARC
  5
A1
330
9C
100
AcDbEntity
  8
AM_BOR
  6
Continuous
 62
   179
100
AcDbCircle
 10
251.28739275
 20
12.7773855
 30
0.0
 40
0.2705422604810409
100
AcDbArc
 50
270.0
 51
340.9063925397
  0
ARC
  5
A2
330
9C
100
AcDbEntity
  8
AM_BOR
  6
Continuous
 62
   179
100
AcDbCircle
 10
251.4802545
 20
12.90210525
 30
0.0
 40
0.7653870000000023
100
AcDbArc
 50
270.0
 51
340.906508
  0
ARC
  5
A3
330
9C
100
AcDbEntity
  8
AM_BOR
  6
Continuous
 62
   179
100
AcDbCircle
 10
256.85942625
 20
12.1987785
 30
0.0
 40
0.5383387500000216
100
AcDbArc
 50
322.928819
 51
0.0
  0
ARC
  5
A4
330
9C
100
AcDbEntity
  8
AM_BOR
  6
Continuous
 62
   179
100
AcDbCircle
 10
257.2127025
 20
12.21074325
 30
0.0
 40
0.4938082750557682
100
AcDbArc
 50
288.0557129478
 51
0.0
  0
ARC
  5
A5
330
9C
100
AcDbEntity
  8
AM_BOR
  6
Continuous
 62
   179
100
AcDbCircle
 10
259.3833495
 20
12.7708665
 30
0.0
 40
0.4572405000000008
100
AcDbArc
 50
295.681459
 51
0.0
  0
ARC
  5
A6
330
9C
100
AcDbEntity
  8
AM_BOR
  6
Continuous
 62
   179
100
AcDbCircle
 10
260.38209525
 20
13.0778265
 30
0.0
 40
0.245405250000033
100
AcDbArc
 50
180.0
 51
255.765612
  0
ARC
  5
A7
330
9C
100
AcDbEntity
  8
AM_BOR
  6
Continuous
 62
   179
100
AcDbCircle
 10
259.60905675
 20
12.374895
 30
0.0
 40
0.276565027490929
100
AcDbArc
 50
264.282129
 51
326.8428808535
  0
ARC
  5
A8
330
9C
100
AcDbEntity
  8
AM_BOR
  6
Continuous
 62
   179
100
AcDbCircle
 10
259.5957585
 20
12.55770225
 30
0.0
 40
1.022094000000004
100
AcDbArc
 50
318.289226
 51
0.0
  0
ARC
  5
A9
330
9C
100
AcDbEntity
  8
AM_BOR
  6
Continuous
 62
   179
100
AcDbCircle
 10
259.97502225
 20
12.5689395
 30
0.0
 40
0.9229200766532124
100
AcDbArc
 50
294.5691978693
 51
347.753313
  0
ARC
  5
AA
330
9C
100
AcDbEntity
  8
AM_BOR
  6
Continuous
 62
   179
100
AcDbCircle
 10
262.11197025
 20
12.5689395
 30
0.0
 40
0.9229201586827486
100
AcDbArc
 50
192.2466912259
 51
245.430814
  0
ARC
  5
AB
330
9C
100
AcDbEntity
  8
AM_BOR
  6
Continuous
 62
   179
100
AcDbCircle
 10
262.491234
 20
12.55770225
 30
0.0
 40
1.022094004725218
100
AcDbArc
 50
180.0
 51
221.7107777904
  0
ARC
  5
AC
330
9C
100
AcDbEntity
  8
AM_BOR
  6
Continuous
 62
   179
100
AcDbCircle
 10
259.91662275
 20
13.39600575
 30
0.0
 40
0.5531797500000266
100
AcDbArc
 50
318.189927
 51
0.0
  0
ARC
  5
AD
330
9C
100
AcDbEntity
  8
AM_BOR
  6
Continuous
 62
   179
100
AcDbCircle
 10
260.41293
 20
13.262844
 30
0.0
 40
0.3529724999999967
100
AcDbArc
 50
278.751679
 51
357.442479
  0
ARC
  5
AE
330
9C
100
AcDbEntity
  8
AM_BOR
  6
Continuous
 62
   179
100
AcDbCircle
 10
264.0848265
 20
12.76978125
 30
0.0
 40
1.061161656932829
100
AcDbArc
 50
182.2068796873
 51
258.592973
  0
ARC
  5
AF
330
9C
100
AcDbEntity
  8
AM_BOR
  6
Continuous
 62
   179
100
AcDbCircle
 10
264.41465175
 20
12.781179
 30
0.0
 40
1.020861939512827
100
AcDbArc
 50
180.0
 51
238.0843594297
  0
ARC
  5
B0
330
9C
100
AcDbEntity
  8
AM_BOR
  6
Continuous
 62
   179
100
AcDbCircle
 10
263.507652
 20
15.31414425
 30
0.0
 40
2.282931744394494
100
AcDbArc
 50
284.0018578489
 51
309.128245
  0
ARC
  5
B1
330
9C
100
AcDbEntity
  8
AM_BOR
  6
Continuous
 62
   179
100
AcDbCircle
 10
266.6480655
 20
15.31414425
 30
0.0
 40
2.282931744394509
100
AcDbArc
 50
230.8717554948
 51
255.998143
  0
ARC
  5
B2
330
9C
100
AcDbEntity
  8
AM_BOR
  6
Continuous
 62
   179
100
AcDbCircle
 10
267.26586975
 20
18.83389875
 30
0.0
 40
6.03446103973741
100
AcDbArc
 50
248.740907
 51
258.8187031221
  0
ARC
  5
B3
330
9C
100
AcDbEntity
  8
AM_BOR
  6
Continuous
 62
   179
100
AcDbCircle
 10
262.88984775
 20
18.83389875
 30
0.0
 40
6.034461130352906
100
AcDbArc
 50
281.1812968779
 51
291.2590974228
  0
ARC
  5
B4
330
9C
100
AcDbEntity
  8
AM_BOR
  6
Continuous
 62
   179
100
AcDbCircle
 10
265.09887675
 20
12.33957225
 30
0.0
 40
0.4249290000000006
100
AcDbArc
 50
270.0
 51
320.166391
  0
ARC
  5
B5
330
9C
100
AcDbEntity
  8
AM_BOR
  6
Continuous
 62
   179
100
AcDbCircle
 10
266.11006575
 20
12.59246925
 30
0.0
 40
0.8630080392554694
100
AcDbArc
 50
209.026101
 51
217.476860457
  0
ARC
  5
B6
330
9C
100
AcDbEntity
  8
AM_BOR
  6
Continuous
 62
   179
100
AcDbCircle
 10
266.30137125
 20
12.6023745
 30
0.0
 40
0.7178257846846557
100
AcDbArc
 50
216.6654620813
 51
253.350491
  0
ARC
  5
B7
330
9C
100
AcDbEntity
  8
AM_BOR
  6
Continuous
 62
   179
100
AcDbCircle
 10
266.11006575
 20
12.59246925
 30
0.0
 40
0.8630078918940629
100
AcDbArc
 50
227.649871
 51
269.0463685501
  0
ARC
  5
B8
330
9C
100
AcDbEntity
  8
AM_BOR
  6
Continuous
 62
   179
100
AcDbCircle
 10
265.19987025
 20
12.08230575
 30
0.0
 40
0.3527249655874535
100
AcDbArc
 50
270.0
 51
338.785807194
  0
ARC
  5
B9
330
9C
100
AcDbEntity
  8
AM_BOR
  6
Continuous
 62
   179
100
AcDbCircle
 10
265.863873
 20
13.342314
 30
0.0
 40
0.9030885000000074
100
AcDbArc
 50
292.312661
 51
353.947544
  0
ARC
  5
BA
330
9C
100
AcDbEntity
  8
AM_BOR
  6
Continuous
 62
   179
100
AcDbCircle
 10
265.91016975
 20
13.55574
 30
0.0
 40
1.26909752010819
100
AcDbArc
 50
319.344946
 51
352.7300681944
  0
ARC
  5
BB
330
9C
100
AcDbEntity
  8
AM_BOR
  6
Continuous
 62
   179
100
AcDbCircle
 10
267.37507725
 20
13.10567625
 30
0.0
 40
0.627744572490203
100
AcDbArc
 50
216.8825686049
 51
243.506241
  0
ARC
  5
BC
330
9C
100
AcDbEntity
  8
AM_BOR
  6
Continuous
 62
   179
100
AcDbCircle
 10
267.14384325
 20
12.80195925
 30
0.0
 40
0.4826524765062826
100
AcDbArc
 50
217.694177
 51
264.1966344737
  0
ARC
  5
BD
330
9C
100
AcDbEntity
  8
AM_BOR
  6
Continuous
 62
   179
100
AcDbCircle
 10
265.91016975
 20
13.55574
 30
0.0
 40
1.269097522905835
100
AcDbArc
 50
283.514185
 51
295.9659488323
  0
LINE
  5
BE
330
9C
100
AcDbEntity
  8
AM_BOR
  6
Continuous
 62
   179
100
AcDbLine
 10
241.7414775
 20
12.76593075
 30
0.0
 11
243.1479525
 21
13.46916825
 31
0.0
  0
LINE
  5
BF
330
9C
100
AcDbEntity
  8
AM_BOR
  6
Continuous
 62
   179
100
AcDbLine
 10
243.1479525
 20
13.46916825
 30
0.0
 11
243.1479525
 21
13.02501825
 31
0.0
  0
LINE
  5
C0
330
9C
100
AcDbEntity
  8
AM_BOR
  6
Continuous
 62
   179
100
AcDbLine
 10
243.1479525
 20
13.02501825
 30
0.0
 11
243.481065
 21
13.02501825
 31
0.0
  0
LINE
  5
C1
330
9C
100
AcDbEntity
  8
AM_BOR
  6
Continuous
 62
   179
100
AcDbLine
 10
243.481065
 20
13.02501825
 30
0.0
 11
243.481065
 21
12.50684325
 31
0.0
  0
LINE
  5
C2
330
9C
100
AcDbEntity
  8
AM_BOR
  6
Continuous
 62
   179
100
AcDbLine
 10
243.481065
 20
12.50684325
 30
0.0
 11
243.1479525
 21
12.50684325
 31
0.0
  0
LINE
  5
C3
330
9C
100
AcDbEntity
  8
AM_BOR
  6
Continuous
 62
   179
100
AcDbLine
 10
243.1479525
 20
12.50684325
 30
0.0
 11
243.1479525
 21
12.06269325
 31
0.0
  0
LINE
  5
C4
330
9C
100
AcDbEntity
  8
AM_BOR
  6
Continuous
 62
   179
100
AcDbLine
 10
243.1479525
 20
12.06269325
 30
0.0
 11
241.7414775
 21
12.76593075
 31
0.0
  0
LINE
  5
C5
330
9C
100
AcDbEntity
  8
AM_BOR
  6
Continuous
 62
   179
100
AcDbLine
 10
243.2960025
 20
11.98866825
 30
0.0
 11
243.7401525
 21
11.98866825
 31
0.0
  0
LINE
  5
C6
330
9C
100
AcDbEntity
  8
AM_BOR
  6
Continuous
 62
   179
100
AcDbLine
 10
243.7401525
 20
11.98866825
 30
0.0
 11
243.7401525
 21
12.61788075
 31
0.0
  0
LINE
  5
C7
330
9C
100
AcDbEntity
  8
AM_BOR
  6
Continuous
 62
   179
100
AcDbLine
 10
243.7401525
 20
12.61788075
 30
0.0
 11
244.6284525
 21
12.61788075
 31
0.0
  0
LINE
  5
C8
330
9C
100
AcDbEntity
  8
AM_BOR
  6
Continuous
 62
   179
100
AcDbLine
 10
244.6284525
 20
12.61788075
 30
0.0
 11
244.6284525
 21
11.98866825
 31
0.0
  0
LINE
  5
C9
330
9C
100
AcDbEntity
  8
AM_BOR
  6
Continuous
 62
   179
100
AcDbLine
 10
244.6284525
 20
11.98866825
 30
0.0
 11
245.0726025
 21
11.98866825
 31
0.0
  0
LINE
  5
CA
330
9C
100
AcDbEntity
  8
AM_BOR
  6
Continuous
 62
   179
100
AcDbLine
 10
245.0726025
 20
11.98866825
 30
0.0
 11
244.1843025
 21
11.54451825
 31
0.0
  0
LINE
  5
CB
330
9C
100
AcDbEntity
  8
AM_BOR
  6
Continuous
 62
   179
100
AcDbLine
 10
244.1843025
 20
11.54451825
 30
0.0
 11
243.2960025
 21
11.98866825
 31
0.0
  0
LINE
  5
CC
330
9C
100
AcDbEntity
  8
AM_BOR
  6
Continuous
 62
   179
100
AcDbLine
 10
243.7401525
 20
12.91398075
 30
0.0
 11
244.6284525
 21
12.91398075
 31
0.0
  0
LINE
  5
CD
330
9C
100
AcDbEntity
  8
AM_BOR
  6
Continuous
 62
   179
100
AcDbLine
 10
244.6284525
 20
12.91398075
 30
0.0
 11
244.6284525
 21
13.54319325
 31
0.0
  0
LINE
  5
CE
330
9C
100
AcDbEntity
  8
AM_BOR
  6
Continuous
 62
   179
100
AcDbLine
 10
244.6284525
 20
13.54319325
 30
0.0
 11
245.0726025
 21
13.54319325
 31
0.0
  0
LINE
  5
CF
330
9C
100
AcDbEntity
  8
AM_BOR
  6
Continuous
 62
   179
100
AcDbLine
 10
245.0726025
 20
13.54319325
 30
0.0
 11
244.1843025
 21
13.98734325
 31
0.0
  0
LINE
  5
D0
330
9C
100
AcDbEntity
  8
AM_BOR
  6
Continuous
 62
   179
100
AcDbLine
 10
244.1843025
 20
13.98734325
 30
0.0
 11
243.2960025
 21
13.54319325
 31
0.0
  0
LINE
  5
D1
330
9C
100
AcDbEntity
  8
AM_BOR
  6
Continuous
 62
   179
100
AcDbLine
 10
243.2960025
 20
13.54319325
 30
0.0
 11
243.7401525
 21
13.54319325
 31
0.0
  0
LINE
  5
D2
330
9C
100
AcDbEntity
  8
AM_BOR
  6
Continuous
 62
   179
100
AcDbLine
 10
243.7401525
 20
13.54319325
 30
0.0
 11
243.7401525
 21
12.91398075
 31
0.0
  0
LINE
  5
D3
330
9C
100
AcDbEntity
  8
AM_BOR
  6
Continuous
 62
   179
100
AcDbLine
 10
244.88754
 20
13.02501825
 30
0.0
 11
244.88754
 21
12.50684325
 31
0.0
  0
LINE
  5
D4
330
9C
100
AcDbEntity
  8
AM_BOR
  6
Continuous
 62
   179
100
AcDbLine
 10
244.88754
 20
12.50684325
 30
0.0
 11
245.2206525
 21
12.50684325
 31
0.0
  0
LINE
  5
D5
330
9C
100
AcDbEntity
  8
AM_BOR
  6
Continuous
 62
   179
100
AcDbLine
 10
245.2206525
 20
12.50684325
 30
0.0
 11
245.2206525
 21
12.06269325
 31
0.0
  0
LINE
  5
D6
330
9C
100
AcDbEntity
  8
AM_BOR
  6
Continuous
 62
   179
100
AcDbLine
 10
245.2206525
 20
12.06269325
 30
0.0
 11
246.6271275
 21
12.76593075
 31
0.0
  0
LINE
  5
D7
330
9C
100
AcDbEntity
  8
AM_BOR
  6
Continuous
 62
   179
100
AcDbLine
 10
246.6271275
 20
12.76593075
 30
0.0
 11
245.2206525
 21
13.46916825
 31
0.0
  0
LINE
  5
D8
330
9C
100
AcDbEntity
  8
AM_BOR
  6
Continuous
 62
   179
100
AcDbLine
 10
245.2206525
 20
13.46916825
 30
0.0
 11
245.2206525
 21
13.02501825
 31
0.0
  0
LINE
  5
D9
330
9C
100
AcDbEntity
  8
AM_BOR
  6
Continuous
 62
   179
100
AcDbLine
 10
245.2206525
 20
13.02501825
 30
0.0
 11
244.88754
 21
13.02501825
 31
0.0
  0
LINE
  5
DA
330
9C
100
AcDbEntity
  8
AM_BOR
  6
Continuous
 62
   179
100
AcDbLine
 10
246.9384519877
 20
12.4015328157
 30
0.0
 11
247.5154275
 21
13.69124325
 31
0.0
  0
LINE
  5
DB
330
9C
100
AcDbEntity
  8
AM_BOR
  6
Continuous
 62
   179
100
AcDbLine
 10
247.5154275
 20
13.69124325
 30
0.0
 11
248.3297025
 21
13.69124325
 31
0.0
  0
LINE
  5
DC
330
9C
100
AcDbEntity
  8
AM_BOR
  6
Continuous
 62
   179
100
AcDbLine
 10
248.3297025
 20
13.69124325
 30
0.0
 11
247.6843515
 21
12.248694
 31
0.0
  0
LINE
  5
DD
330
9C
100
AcDbEntity
  8
AM_BOR
  6
Continuous
 62
   179
100
AcDbLine
 10
246.8834235
 20
11.72958075
 30
0.0
 11
246.4050525
 21
11.72958075
 31
0.0
  0
LINE
  5
DE
330
9C
100
AcDbEntity
  8
AM_BOR
  6
Continuous
 62
   179
100
AcDbLine
 10
246.4050525
 20
11.72958075
 30
0.0
 11
246.5160902425
 21
12.0626931667
 31
0.0
  0
LINE
  5
DF
330
9C
100
AcDbEntity
  8
AM_BOR
  6
Continuous
 62
   179
100
AcDbLine
 10
248.4777525
 20
11.72958075
 30
0.0
 11
248.662815
 21
13.54319325
 31
0.0
  0
LINE
  5
E0
330
9C
100
AcDbEntity
  8
AM_BOR
  6
Continuous
 62
   179
100
AcDbLine
 10
248.662815
 20
13.54319325
 30
0.0
 11
249.403065
 21
13.54319325
 31
0.0
  0
LINE
  5
E1
330
9C
100
AcDbEntity
  8
AM_BOR
  6
Continuous
 62
   179
100
AcDbLine
 10
249.403065
 20
13.54319325
 30
0.0
 11
249.2180025
 21
11.72958075
 31
0.0
  0
LINE
  5
E2
330
9C
100
AcDbEntity
  8
AM_BOR
  6
Continuous
 62
   179
100
AcDbLine
 10
249.2180025
 20
11.72958075
 30
0.0
 11
248.4777525
 21
11.72958075
 31
0.0
  0
LINE
  5
E3
330
9C
100
AcDbEntity
  8
AM_BOR
  6
Continuous
 62
   179
100
AcDbLine
 10
249.77319
 20
11.72958075
 30
0.0
 11
250.587465
 21
11.72958075
 31
0.0
  0
LINE
  5
E4
330
9C
100
AcDbEntity
  8
AM_BOR
  6
Continuous
 62
   179
100
AcDbLine
 10
250.587465
 20
11.72958075
 30
0.0
 11
250.905912
 21
13.13605575
 31
0.0
  0
LINE
  5
E5
330
9C
100
AcDbEntity
  8
AM_BOR
  6
Continuous
 62
   179
100
AcDbLine
 10
250.905912
 20
13.13605575
 30
0.0
 11
251.69784
 21
13.13605575
 31
0.0
  0
LINE
  5
E6
330
9C
100
AcDbEntity
  8
AM_BOR
  6
Continuous
 62
   179
100
AcDbLine
 10
251.69784
 20
13.13605575
 30
0.0
 11
251.54305125
 21
12.68888775
 31
0.0
  0
LINE
  5
E7
330
9C
100
AcDbEntity
  8
AM_BOR
  6
Continuous
 62
   179
100
AcDbLine
 10
251.28739275
 20
12.50684325
 30
0.0
 11
251.031615
 21
12.50684325
 31
0.0
  0
LINE
  5
E8
330
9C
100
AcDbEntity
  8
AM_BOR
  6
Continuous
 62
   179
100
AcDbLine
 10
251.031615
 20
12.50684325
 30
0.0
 11
250.9205775
 21
12.13671825
 31
0.0
  0
LINE
  5
E9
330
9C
100
AcDbEntity
  8
AM_BOR
  6
Continuous
 62
   179
100
AcDbLine
 10
250.9205775
 20
12.13671825
 30
0.0
 11
251.4802545
 21
12.13671825
 31
0.0
  0
LINE
  5
EA
330
9C
100
AcDbEntity
  8
AM_BOR
  6
Continuous
 62
   179
100
AcDbLine
 10
252.2035345558
 20
12.6517390768
 30
0.0
 11
252.512115
 21
13.54319325
 31
0.0
  0
LINE
  5
EB
330
9C
100
AcDbEntity
  8
AM_BOR
  6
Continuous
 62
   179
100
AcDbLine
 10
252.512115
 20
13.54319325
 30
0.0
 11
250.9980945
 21
13.54319325
 31
0.0
  0
LINE
  5
EC
330
9C
100
AcDbEntity
  8
AM_BOR
  6
Continuous
 62
   179
100
AcDbLine
 10
250.9980945
 20
13.54319325
 30
0.0
 11
251.031615
 21
13.69124325
 31
0.0
  0
LINE
  5
ED
330
9C
100
AcDbEntity
  8
AM_BOR
  6
Continuous
 62
   179
100
AcDbLine
 10
251.031615
 20
13.69124325
 30
0.0
 11
250.21734
 21
13.69124325
 31
0.0
  0
LINE
  5
EE
330
9C
100
AcDbEntity
  8
AM_BOR
  6
Continuous
 62
   179
100
AcDbLine
 10
250.21734
 20
13.69124325
 30
0.0
 11
250.1838195
 21
13.54319325
 31
0.0
  0
LINE
  5
EF
330
9C
100
AcDbEntity
  8
AM_BOR
  6
Continuous
 62
   179
100
AcDbLine
 10
250.1838195
 20
13.54319325
 30
0.0
 11
249.7361775
 21
13.54319325
 31
0.0
  0
LINE
  5
F0
330
9C
100
AcDbEntity
  8
AM_BOR
  6
Continuous
 62
   179
100
AcDbLine
 10
249.7361775
 20
13.54319325
 30
0.0
 11
249.62514
 21
13.13605575
 31
0.0
  0
LINE
  5
F1
330
9C
100
AcDbEntity
  8
AM_BOR
  6
Continuous
 62
   179
100
AcDbLine
 10
249.62514
 20
13.13605575
 30
0.0
 11
250.091637
 21
13.13605575
 31
0.0
  0
LINE
  5
F2
330
9C
100
AcDbEntity
  8
AM_BOR
  6
Continuous
 62
   179
100
AcDbLine
 10
250.091637
 20
13.13605575
 30
0.0
 11
249.77319
 21
11.72958075
 31
0.0
  0
LINE
  5
F3
330
9C
100
AcDbEntity
  8
AM_BOR
  6
Continuous
 62
   179
100
AcDbLine
 10
252.3270525
 20
11.91464325
 30
0.0
 11
254.584815
 21
11.72958075
 31
0.0
  0
LINE
  5
F4
330
9C
100
AcDbEntity
  8
AM_BOR
  6
Continuous
 62
   179
100
AcDbLine
 10
254.584815
 20
11.72958075
 30
0.0
 11
254.732865
 21
12.28476825
 31
0.0
  0
LINE
  5
F5
330
9C
100
AcDbEntity
  8
AM_BOR
  6
Continuous
 62
   179
100
AcDbLine
 10
254.732865
 20
12.28476825
 30
0.0
 11
252.4751025
 21
12.46983075
 31
0.0
  0
LINE
  5
F6
330
9C
100
AcDbEntity
  8
AM_BOR
  6
Continuous
 62
   179
100
AcDbLine
 10
252.4751025
 20
12.46983075
 30
0.0
 11
252.3270525
 21
11.91464325
 31
0.0
  0
LINE
  5
F7
330
9C
100
AcDbEntity
  8
AM_BOR
  6
Continuous
 62
   179
100
AcDbLine
 10
252.660165
 20
12.72891825
 30
0.0
 11
252.759129
 21
13.1000325
 31
0.0
  0
LINE
  5
F8
330
9C
100
AcDbEntity
  8
AM_BOR
  6
Continuous
 62
   179
100
AcDbLine
 10
252.759129
 20
13.1000325
 30
0.0
 11
254.717466
 21
12.93951375
 31
0.0
  0
LINE
  5
F9
330
9C
100
AcDbEntity
  8
AM_BOR
  6
Continuous
 62
   179
100
AcDbLine
 10
254.717466
 20
12.93951375
 30
0.0
 11
254.618502
 21
12.56839875
 31
0.0
  0
LINE
  5
FA
330
9C
100
AcDbEntity
  8
AM_BOR
  6
Continuous
 62
   179
100
AcDbLine
 10
254.618502
 20
12.56839875
 30
0.0
 11
252.660165
 21
12.72891825
 31
0.0
  0
LINE
  5
FB
330
9C
100
AcDbEntity
  8
AM_BOR
  6
Continuous
 62
   179
100
AcDbLine
 10
252.73419
 20
13.32111825
 30
0.0
 11
254.847069
 21
13.14793125
 31
0.0
  0
LINE
  5
FC
330
9C
100
AcDbEntity
  8
AM_BOR
  6
Continuous
 62
   179
100
AcDbLine
 10
254.847069
 20
13.14793125
 30
0.0
 11
254.95490025
 21
13.55229825
 31
0.0
  0
LINE
  5
FD
330
9C
100
AcDbEntity
  8
AM_BOR
  6
Continuous
 62
   179
100
AcDbLine
 10
254.95490025
 20
13.55229825
 30
0.0
 11
252.84202125
 21
13.7254845
 31
0.0
  0
LINE
  5
FE
330
9C
100
AcDbEntity
  8
AM_BOR
  6
Continuous
 62
   179
100
AcDbLine
 10
252.84202125
 20
13.7254845
 30
0.0
 11
252.73419
 21
13.32111825
 31
0.0
  0
LINE
  5
FF
330
9C
100
AcDbEntity
  8
AM_BOR
  6
Continuous
 62
   179
100
AcDbLine
 10
255.25104
 20
13.39514325
 30
0.0
 11
255.25104
 21
13.21008075
 31
0.0
  0
LINE
  5
100
330
9C
100
AcDbEntity
  8
AM_BOR
  6
Continuous
 62
   179
100
AcDbLine
 10
255.25104
 20
13.21008075
 30
0.0
 11
255.9542775
 21
13.21008075
 31
0.0
  0
LINE
  5
101
330
9C
100
AcDbEntity
  8
AM_BOR
  6
Continuous
 62
   179
100
AcDbLine
 10
255.9542775
 20
13.21008075
 30
0.0
 11
255.9542775
 21
11.91464325
 31
0.0
  0
LINE
  5
102
330
9C
100
AcDbEntity
  8
AM_BOR
  6
Continuous
 62
   179
100
AcDbLine
 10
255.9542775
 20
11.91464325
 30
0.0
 11
255.10299
 21
11.91464325
 31
0.0
  0
LINE
  5
103
330
9C
100
AcDbEntity
  8
AM_BOR
  6
Continuous
 62
   179
100
AcDbLine
 10
255.10299
 20
11.91464325
 30
0.0
 11
255.10299
 21
11.72958075
 31
0.0
  0
LINE
  5
104
330
9C
100
AcDbEntity
  8
AM_BOR
  6
Continuous
 62
   179
100
AcDbLine
 10
255.10299
 20
11.72958075
 30
0.0
 11
257.17569
 21
11.72958075
 31
0.0
  0
LINE
  5
105
330
9C
100
AcDbEntity
  8
AM_BOR
  6
Continuous
 62
   179
100
AcDbLine
 10
257.17569
 20
11.72958075
 30
0.0
 11
257.17569
 21
11.91464325
 31
0.0
  0
LINE
  5
106
330
9C
100
AcDbEntity
  8
AM_BOR
  6
Continuous
 62
   179
100
AcDbLine
 10
257.17569
 20
11.91464325
 30
0.0
 11
256.3244025
 21
11.91464325
 31
0.0
  0
LINE
  5
107
330
9C
100
AcDbEntity
  8
AM_BOR
  6
Continuous
 62
   179
100
AcDbLine
 10
256.3244025
 20
11.91464325
 30
0.0
 11
256.3244025
 21
13.21008075
 31
0.0
  0
LINE
  5
108
330
9C
100
AcDbEntity
  8
AM_BOR
  6
Continuous
 62
   179
100
AcDbLine
 10
256.3244025
 20
13.21008075
 30
0.0
 11
257.02764
 21
13.21008075
 31
0.0
  0
LINE
  5
109
330
9C
100
AcDbEntity
  8
AM_BOR
  6
Continuous
 62
   179
100
AcDbLine
 10
257.02764
 20
13.21008075
 30
0.0
 11
257.02764
 21
13.39514325
 31
0.0
  0
LINE
  5
10A
330
9C
100
AcDbEntity
  8
AM_BOR
  6
Continuous
 62
   179
100
AcDbLine
 10
257.02764
 20
13.39514325
 30
0.0
 11
255.25104
 21
13.39514325
 31
0.0
  0
LINE
  5
10B
330
9C
100
AcDbEntity
  8
AM_BOR
  6
Continuous
 62
   179
100
AcDbLine
 10
257.397765
 20
13.06203075
 30
0.0
 11
257.397765
 21
12.1987785
 31
0.0
  0
LINE
  5
10C
330
9C
100
AcDbEntity
  8
AM_BOR
  6
Continuous
 62
   179
100
AcDbLine
 10
257.2889598658
 20
11.8742642744
 30
0.0
 11
257.36575425
 21
11.74125225
 31
0.0
  0
LINE
  5
10D
330
9C
100
AcDbEntity
  8
AM_BOR
  6
Continuous
 62
   179
100
AcDbLine
 10
257.70651075
 20
12.21074325
 30
0.0
 11
257.70651075
 21
12.87696825
 31
0.0
  0
LINE
  5
10E
330
9C
100
AcDbEntity
  8
AM_BOR
  6
Continuous
 62
   179
100
AcDbLine
 10
257.70651075
 20
12.87696825
 30
0.0
 11
259.470465
 21
12.87696825
 31
0.0
  0
LINE
  5
10F
330
9C
100
AcDbEntity
  8
AM_BOR
  6
Continuous
 62
   179
100
AcDbLine
 10
259.470465
 20
12.87696825
 30
0.0
 11
259.470465
 21
13.06203075
 31
0.0
  0
LINE
  5
110
330
9C
100
AcDbEntity
  8
AM_BOR
  6
Continuous
 62
   179
100
AcDbLine
 10
259.470465
 20
13.06203075
 30
0.0
 11
259.10034
 21
13.06203075
 31
0.0
  0
LINE
  5
111
330
9C
100
AcDbEntity
  8
AM_BOR
  6
Continuous
 62
   179
100
AcDbLine
 10
259.10034
 20
13.06203075
 30
0.0
 11
259.10034
 21
13.24709325
 31
0.0
  0
LINE
  5
112
330
9C
100
AcDbEntity
  8
AM_BOR
  6
Continuous
 62
   179
100
AcDbLine
 10
259.10034
 20
13.24709325
 30
0.0
 11
259.470465
 21
13.24709325
 31
0.0
  0
LINE
  5
113
330
9C
100
AcDbEntity
  8
AM_BOR
  6
Continuous
 62
   179
100
AcDbLine
 10
259.470465
 20
13.24709325
 30
0.0
 11
259.470465
 21
13.39514325
 31
0.0
  0
LINE
  5
114
330
9C
100
AcDbEntity
  8
AM_BOR
  6
Continuous
 62
   179
100
AcDbLine
 10
259.470465
 20
13.39514325
 30
0.0
 11
258.65619
 21
13.39514325
 31
0.0
  0
LINE
  5
115
330
9C
100
AcDbEntity
  8
AM_BOR
  6
Continuous
 62
   179
100
AcDbLine
 10
258.65619
 20
13.39514325
 30
0.0
 11
258.65619
 21
13.54319325
 31
0.0
  0
LINE
  5
116
330
9C
100
AcDbEntity
  8
AM_BOR
  6
Continuous
 62
   179
100
AcDbLine
 10
258.65619
 20
13.54319325
 30
0.0
 11
258.286065
 21
13.54319325
 31
0.0
  0
LINE
  5
117
330
9C
100
AcDbEntity
  8
AM_BOR
  6
Continuous
 62
   179
100
AcDbLine
 10
258.286065
 20
13.54319325
 30
0.0
 11
258.286065
 21
13.39514325
 31
0.0
  0
LINE
  5
118
330
9C
100
AcDbEntity
  8
AM_BOR
  6
Continuous
 62
   179
100
AcDbLine
 10
258.286065
 20
13.39514325
 30
0.0
 11
257.4347775
 21
13.39514325
 31
0.0
  0
LINE
  5
119
330
9C
100
AcDbEntity
  8
AM_BOR
  6
Continuous
 62
   179
100
AcDbLine
 10
257.4347775
 20
13.39514325
 30
0.0
 11
257.4347775
 21
13.24709325
 31
0.0
  0
LINE
  5
11A
330
9C
100
AcDbEntity
  8
AM_BOR
  6
Continuous
 62
   179
100
AcDbLine
 10
257.4347775
 20
13.24709325
 30
0.0
 11
257.8789275
 21
13.24709325
 31
0.0
  0
LINE
  5
11B
330
9C
100
AcDbEntity
  8
AM_BOR
  6
Continuous
 62
   179
100
AcDbLine
 10
257.8789275
 20
13.24709325
 30
0.0
 11
257.8789275
 21
13.06203075
 31
0.0
  0
LINE
  5
11C
330
9C
100
AcDbEntity
  8
AM_BOR
  6
Continuous
 62
   179
100
AcDbLine
 10
257.8789275
 20
13.06203075
 30
0.0
 11
257.397765
 21
13.06203075
 31
0.0
  0
LINE
  5
11D
330
9C
100
AcDbEntity
  8
AM_BOR
  6
Continuous
 62
   179
100
AcDbLine
 10
257.8049025
 20
12.76593075
 30
0.0
 11
258.04956675
 21
12.76593075
 31
0.0
  0
LINE
  5
11E
330
9C
100
AcDbEntity
  8
AM_BOR
  6
Continuous
 62
   179
100
AcDbLine
 10
258.04956675
 20
12.76593075
 30
0.0
 11
258.04956675
 21
12.61788075
 31
0.0
  0
LINE
  5
11F
330
9C
100
AcDbEntity
  8
AM_BOR
  6
Continuous
 62
   179
100
AcDbLine
 10
258.04956675
 20
12.61788075
 30
0.0
 11
258.50814
 21
12.61788075
 31
0.0
  0
LINE
  5
120
330
9C
100
AcDbEntity
  8
AM_BOR
  6
Continuous
 62
   179
100
AcDbLine
 10
258.50814
 20
12.61788075
 30
0.0
 11
258.50814
 21
12.76593075
 31
0.0
  0
LINE
  5
121
330
9C
100
AcDbEntity
  8
AM_BOR
  6
Continuous
 62
   179
100
AcDbLine
 10
258.50814
 20
12.76593075
 30
0.0
 11
258.80424
 21
12.76593075
 31
0.0
  0
LINE
  5
122
330
9C
100
AcDbEntity
  8
AM_BOR
  6
Continuous
 62
   179
100
AcDbLine
 10
258.80424
 20
12.76593075
 30
0.0
 11
258.80424
 21
12.61788075
 31
0.0
  0
LINE
  5
123
330
9C
100
AcDbEntity
  8
AM_BOR
  6
Continuous
 62
   179
100
AcDbLine
 10
258.80424
 20
12.61788075
 30
0.0
 11
259.4334525
 21
12.61788075
 31
0.0
  0
LINE
  5
124
330
9C
100
AcDbEntity
  8
AM_BOR
  6
Continuous
 62
   179
100
AcDbLine
 10
259.4334525
 20
12.61788075
 30
0.0
 11
259.4334525
 21
12.46983075
 31
0.0
  0
LINE
  5
125
330
9C
100
AcDbEntity
  8
AM_BOR
  6
Continuous
 62
   179
100
AcDbLine
 10
259.4334525
 20
12.46983075
 30
0.0
 11
258.80424
 21
12.46983075
 31
0.0
  0
LINE
  5
126
330
9C
100
AcDbEntity
  8
AM_BOR
  6
Continuous
 62
   179
100
AcDbLine
 10
258.80424
 20
12.46983075
 30
0.0
 11
258.80424
 21
12.25908825
 31
0.0
  0
LINE
  5
127
330
9C
100
AcDbEntity
  8
AM_BOR
  6
Continuous
 62
   179
100
AcDbLine
 10
258.80424
 20
12.11103825
 30
0.0
 11
258.80424
 21
11.91464325
 31
0.0
  0
LINE
  5
128
330
9C
100
AcDbEntity
  8
AM_BOR
  6
Continuous
 62
   179
100
AcDbLine
 10
258.80424
 20
11.91464325
 30
0.0
 11
259.470465
 21
11.91464325
 31
0.0
  0
LINE
  5
129
330
9C
100
AcDbEntity
  8
AM_BOR
  6
Continuous
 62
   179
100
AcDbLine
 10
259.470465
 20
11.91464325
 30
0.0
 11
259.470465
 21
11.72958075
 31
0.0
  0
LINE
  5
12A
330
9C
100
AcDbEntity
  8
AM_BOR
  6
Continuous
 62
   179
100
AcDbLine
 10
259.470465
 20
11.72958075
 30
0.0
 11
257.841915
 21
11.72958075
 31
0.0
  0
LINE
  5
12B
330
9C
100
AcDbEntity
  8
AM_BOR
  6
Continuous
 62
   179
100
AcDbLine
 10
257.841915
 20
11.72958075
 30
0.0
 11
257.841915
 21
11.91464325
 31
0.0
  0
LINE
  5
12C
330
9C
100
AcDbEntity
  8
AM_BOR
  6
Continuous
 62
   179
100
AcDbLine
 10
257.841915
 20
11.91464325
 30
0.0
 11
258.50814
 21
11.91464325
 31
0.0
  0
LINE
  5
12D
330
9C
100
AcDbEntity
  8
AM_BOR
  6
Continuous
 62
   179
100
AcDbLine
 10
258.50814
 20
11.91464325
 30
0.0
 11
258.50814
 21
12.11103825
 31
0.0
  0
LINE
  5
12E
330
9C
100
AcDbEntity
  8
AM_BOR
  6
Continuous
 62
   179
100
AcDbLine
 10
258.50814
 20
12.11103825
 30
0.0
 11
257.9149695
 21
12.11103825
 31
0.0
  0
LINE
  5
12F
330
9C
100
AcDbEntity
  8
AM_BOR
  6
Continuous
 62
   179
100
AcDbLine
 10
257.9149695
 20
12.11103825
 30
0.0
 11
257.9149695
 21
12.25908825
 31
0.0
  0
LINE
  5
130
330
9C
100
AcDbEntity
  8
AM_BOR
  6
Continuous
 62
   179
100
AcDbLine
 10
257.8049025
 20
12.46983075
 30
0.0
 11
257.8049025
 21
12.76593075
 31
0.0
  0
LINE
  5
131
330
9C
100
AcDbEntity
  8
AM_BOR
  6
Continuous
 62
   179
100
AcDbLine
 10
257.8049025
 20
12.46983075
 30
0.0
 11
258.50814
 21
12.46983075
 31
0.0
  0
LINE
  5
132
330
9C
100
AcDbEntity
  8
AM_BOR
  6
Continuous
 62
   179
100
AcDbLine
 10
258.50814
 20
12.46983075
 30
0.0
 11
258.50814
 21
12.25908825
 31
0.0
  0
LINE
  5
133
330
9C
100
AcDbEntity
  8
AM_BOR
  6
Continuous
 62
   179
100
AcDbLine
 10
258.80424
 20
12.11103825
 30
0.0
 11
259.3559505
 21
12.11103825
 31
0.0
  0
LINE
  5
134
330
9C
100
AcDbEntity
  8
AM_BOR
  6
Continuous
 62
   179
100
AcDbLine
 10
259.3559505
 20
12.11103825
 30
0.0
 11
259.3559505
 21
12.25908825
 31
0.0
  0
LINE
  5
135
330
9C
100
AcDbEntity
  8
AM_BOR
  6
Continuous
 62
   179
100
AcDbLine
 10
259.84059
 20
12.7708665
 30
0.0
 11
259.84059
 21
13.21008075
 31
0.0
  0
LINE
  5
136
330
9C
100
AcDbEntity
  8
AM_BOR
  6
Continuous
 62
   179
100
AcDbLine
 10
259.84059
 20
13.21008075
 30
0.0
 11
259.618515
 21
13.21008075
 31
0.0
  0
LINE
  5
137
330
9C
100
AcDbEntity
  8
AM_BOR
  6
Continuous
 62
   179
100
AcDbLine
 10
259.618515
 20
13.21008075
 30
0.0
 11
259.618515
 21
13.39514325
 31
0.0
  0
LINE
  5
138
330
9C
100
AcDbEntity
  8
AM_BOR
  6
Continuous
 62
   179
100
AcDbLine
 10
259.618515
 20
13.39514325
 30
0.0
 11
259.84059
 21
13.39514325
 31
0.0
  0
LINE
  5
139
330
9C
100
AcDbEntity
  8
AM_BOR
  6
Continuous
 62
   179
100
AcDbLine
 10
259.84059
 20
13.39514325
 30
0.0
 11
259.84059
 21
13.54319325
 31
0.0
  0
LINE
  5
13A
330
9C
100
AcDbEntity
  8
AM_BOR
  6
Continuous
 62
   179
100
AcDbLine
 10
259.84059
 20
13.54319325
 30
0.0
 11
260.13669
 21
13.54319325
 31
0.0
  0
LINE
  5
13B
330
9C
100
AcDbEntity
  8
AM_BOR
  6
Continuous
 62
   179
100
AcDbLine
 10
260.13669
 20
13.54319325
 30
0.0
 11
260.13669
 21
13.39514325
 31
0.0
  0
LINE
  5
13C
330
9C
100
AcDbEntity
  8
AM_BOR
  6
Continuous
 62
   179
100
AcDbLine
 10
260.13669
 20
13.39514325
 30
0.0
 11
260.358765
 21
13.39514325
 31
0.0
  0
LINE
  5
13D
330
9C
100
AcDbEntity
  8
AM_BOR
  6
Continuous
 62
   179
100
AcDbLine
 10
260.358765
 20
13.39514325
 30
0.0
 11
260.358765
 21
13.21008075
 31
0.0
  0
LINE
  5
13E
330
9C
100
AcDbEntity
  8
AM_BOR
  6
Continuous
 62
   179
100
AcDbLine
 10
260.358765
 20
13.21008075
 30
0.0
 11
260.13669
 21
13.21008075
 31
0.0
  0
LINE
  5
13F
330
9C
100
AcDbEntity
  8
AM_BOR
  6
Continuous
 62
   179
100
AcDbLine
 10
260.13669
 20
13.21008075
 30
0.0
 11
260.13669
 21
13.0778265
 31
0.0
  0
LINE
  5
140
330
9C
100
AcDbEntity
  8
AM_BOR
  6
Continuous
 62
   179
100
AcDbLine
 10
260.3217527526
 20
12.8399556953
 30
0.0
 11
260.3217527526
 21
12.65489325
 31
0.0
  0
LINE
  5
141
330
9C
100
AcDbEntity
  8
AM_BOR
  6
Continuous
 62
   179
100
AcDbLine
 10
260.3217525
 20
12.65489325
 30
0.0
 11
260.13669
 21
12.7218135
 31
0.0
  0
LINE
  5
142
330
9C
100
AcDbEntity
  8
AM_BOR
  6
Continuous
 62
   179
100
AcDbLine
 10
260.13669
 20
12.7218135
 30
0.0
 11
260.13669
 21
11.72958075
 31
0.0
  0
LINE
  5
143
330
9C
100
AcDbEntity
  8
AM_BOR
  6
Continuous
 62
   179
100
AcDbLine
 10
260.13669
 20
11.72958075
 30
0.0
 11
259.84059
 21
11.72958075
 31
0.0
  0
LINE
  5
144
330
9C
100
AcDbEntity
  8
AM_BOR
  6
Continuous
 62
   179
100
AcDbLine
 10
259.84059
 20
11.72958075
 30
0.0
 11
259.84059
 21
12.22363125
 31
0.0
  0
LINE
  5
145
330
9C
100
AcDbEntity
  8
AM_BOR
  6
Continuous
 62
   179
100
AcDbLine
 10
259.5815025734
 20
12.099706286
 30
0.0
 11
259.5815025734
 21
12.358793448
 31
0.0
  0
LINE
  5
146
330
9C
100
AcDbEntity
  8
AM_BOR
  6
Continuous
 62
   179
100
AcDbLine
 10
260.39090325
 20
12.76593075
 30
0.0
 11
260.6178525
 21
12.76593075
 31
0.0
  0
LINE
  5
147
330
9C
100
AcDbEntity
  8
AM_BOR
  6
Continuous
 62
   179
100
AcDbLine
 10
260.6178525
 20
12.76593075
 30
0.0
 11
260.6178525
 21
12.55770225
 31
0.0
  0
LINE
  5
148
330
9C
100
AcDbEntity
  8
AM_BOR
  6
Continuous
 62
   179
100
AcDbLine
 10
260.3587650379
 20
11.8776308068
 30
0.0
 11
260.3587650379
 21
11.72958075
 31
0.0
  0
LINE
  5
149
330
9C
100
AcDbEntity
  8
AM_BOR
  6
Continuous
 62
   179
100
AcDbLine
 10
260.8769397043
 20
12.3731686338
 30
0.0
 11
260.8769397043
 21
11.72958075
 31
0.0
  0
LINE
  5
14A
330
9C
100
AcDbEntity
  8
AM_BOR
  6
Continuous
 62
   179
100
AcDbLine
 10
260.87694
 20
11.72958075
 30
0.0
 11
261.2100525
 21
11.72958075
 31
0.0
  0
LINE
  5
14B
330
9C
100
AcDbEntity
  8
AM_BOR
  6
Continuous
 62
   179
100
AcDbLine
 10
261.2100525
 20
11.72958075
 30
0.0
 11
261.2100525
 21
12.3731685
 31
0.0
  0
LINE
  5
14C
330
9C
100
AcDbEntity
  8
AM_BOR
  6
Continuous
 62
   179
100
AcDbLine
 10
261.7282277376
 20
11.7295808099
 30
0.0
 11
261.7282277376
 21
11.87763075
 31
0.0
  0
LINE
  5
14D
330
9C
100
AcDbEntity
  8
AM_BOR
  6
Continuous
 62
   179
100
AcDbLine
 10
261.46914
 20
12.55770225
 30
0.0
 11
261.46914
 21
12.76593075
 31
0.0
  0
LINE
  5
14E
330
9C
100
AcDbEntity
  8
AM_BOR
  6
Continuous
 62
   179
100
AcDbLine
 10
261.46914
 20
12.76593075
 30
0.0
 11
261.7282275
 21
12.76593075
 31
0.0
  0
LINE
  5
14F
330
9C
100
AcDbEntity
  8
AM_BOR
  6
Continuous
 62
   179
100
AcDbLine
 10
261.7282275
 20
12.76593075
 30
0.0
 11
261.7282275
 21
12.91398075
 31
0.0
  0
LINE
  5
150
330
9C
100
AcDbEntity
  8
AM_BOR
  6
Continuous
 62
   179
100
AcDbLine
 10
261.7282275
 20
12.91398075
 30
0.0
 11
261.2100525
 21
12.91398075
 31
0.0
  0
LINE
  5
151
330
9C
100
AcDbEntity
  8
AM_BOR
  6
Continuous
 62
   179
100
AcDbLine
 10
261.2100525
 20
12.91398075
 30
0.0
 11
261.2100525
 21
13.24709325
 31
0.0
  0
LINE
  5
152
330
9C
100
AcDbEntity
  8
AM_BOR
  6
Continuous
 62
   179
100
AcDbLine
 10
261.2100525
 20
13.24709325
 30
0.0
 11
261.6542025
 21
13.24709325
 31
0.0
  0
LINE
  5
153
330
9C
100
AcDbEntity
  8
AM_BOR
  6
Continuous
 62
   179
100
AcDbLine
 10
261.6542025
 20
13.24709325
 30
0.0
 11
261.6542025
 21
13.39514325
 31
0.0
  0
LINE
  5
154
330
9C
100
AcDbEntity
  8
AM_BOR
  6
Continuous
 62
   179
100
AcDbLine
 10
261.6542025
 20
13.39514325
 30
0.0
 11
261.2100525
 21
13.39514325
 31
0.0
  0
LINE
  5
155
330
9C
100
AcDbEntity
  8
AM_BOR
  6
Continuous
 62
   179
100
AcDbLine
 10
261.2100525
 20
13.39514325
 30
0.0
 11
261.2100525
 21
13.54319325
 31
0.0
  0
LINE
  5
156
330
9C
100
AcDbEntity
  8
AM_BOR
  6
Continuous
 62
   179
100
AcDbLine
 10
261.2100525
 20
13.54319325
 30
0.0
 11
260.87694
 21
13.54319325
 31
0.0
  0
LINE
  5
157
330
9C
100
AcDbEntity
  8
AM_BOR
  6
Continuous
 62
   179
100
AcDbLine
 10
260.87694
 20
13.54319325
 30
0.0
 11
260.87694
 21
13.39514325
 31
0.0
  0
LINE
  5
158
330
9C
100
AcDbEntity
  8
AM_BOR
  6
Continuous
 62
   179
100
AcDbLine
 10
260.87694
 20
13.39514325
 30
0.0
 11
260.7659025
 21
13.39514325
 31
0.0
  0
LINE
  5
159
330
9C
100
AcDbEntity
  8
AM_BOR
  6
Continuous
 62
   179
100
AcDbLine
 10
260.7659025
 20
13.39514325
 30
0.0
 11
260.7659025
 21
13.54319325
 31
0.0
  0
LINE
  5
15A
330
9C
100
AcDbEntity
  8
AM_BOR
  6
Continuous
 62
   179
100
AcDbLine
 10
260.7659025
 20
13.54319325
 30
0.0
 11
260.4698025
 21
13.54319325
 31
0.0
  0
LINE
  5
15B
330
9C
100
AcDbEntity
  8
AM_BOR
  6
Continuous
 62
   179
100
AcDbLine
 10
260.4698025
 20
13.54319325
 30
0.0
 11
260.4698025
 21
13.39600575
 31
0.0
  0
LINE
  5
15C
330
9C
100
AcDbEntity
  8
AM_BOR
  6
Continuous
 62
   179
100
AcDbLine
 10
260.3289401486
 20
13.0272209908
 30
0.0
 11
260.39090325
 21
12.91398075
 31
0.0
  0
LINE
  5
15D
330
9C
100
AcDbEntity
  8
AM_BOR
  6
Continuous
 62
   179
100
AcDbLine
 10
260.39090325
 20
12.91398075
 30
0.0
 11
260.39090325
 21
12.76593075
 31
0.0
  0
LINE
  5
15E
330
9C
100
AcDbEntity
  8
AM_BOR
  6
Continuous
 62
   179
100
AcDbLine
 10
260.7655509137
 20
13.2470935409
 30
0.0
 11
260.87694
 21
13.2470935409
 31
0.0
  0
LINE
  5
15F
330
9C
100
AcDbEntity
  8
AM_BOR
  6
Continuous
 62
   179
100
AcDbLine
 10
260.87694
 20
13.24709325
 30
0.0
 11
260.87694
 21
12.91398075
 31
0.0
  0
LINE
  5
160
330
9C
100
AcDbEntity
  8
AM_BOR
  6
Continuous
 62
   179
100
AcDbLine
 10
260.87694
 20
12.91398075
 30
0.0
 11
260.4666355951
 21
12.9139811404
 31
0.0
  0
LINE
  5
161
330
9C
100
AcDbEntity
  8
AM_BOR
  6
Continuous
 62
   179
100
AcDbLine
 10
261.839265
 20
12.91398075
 30
0.0
 11
261.839265
 21
12.72891825
 31
0.0
  0
LINE
  5
162
330
9C
100
AcDbEntity
  8
AM_BOR
  6
Continuous
 62
   179
100
AcDbLine
 10
261.839265
 20
12.72891825
 30
0.0
 11
262.283415
 21
12.72891825
 31
0.0
  0
LINE
  5
163
330
9C
100
AcDbEntity
  8
AM_BOR
  6
Continuous
 62
   179
100
AcDbLine
 10
262.283415
 20
12.72891825
 30
0.0
 11
262.283415
 21
11.91464325
 31
0.0
  0
LINE
  5
164
330
9C
100
AcDbEntity
  8
AM_BOR
  6
Continuous
 62
   179
100
AcDbLine
 10
262.283415
 20
11.91464325
 30
0.0
 11
261.8762775
 21
11.91464325
 31
0.0
  0
LINE
  5
165
330
9C
100
AcDbEntity
  8
AM_BOR
  6
Continuous
 62
   179
100
AcDbLine
 10
261.8762775
 20
11.91464325
 30
0.0
 11
261.8762775
 21
11.72958075
 31
0.0
  0
LINE
  5
166
330
9C
100
AcDbEntity
  8
AM_BOR
  6
Continuous
 62
   179
100
AcDbLine
 10
261.8762775
 20
11.72958075
 30
0.0
 11
263.24574
 21
11.72958075
 31
0.0
  0
LINE
  5
167
330
9C
100
AcDbEntity
  8
AM_BOR
  6
Continuous
 62
   179
100
AcDbLine
 10
263.24574
 20
11.72958075
 30
0.0
 11
263.24574
 21
11.91464325
 31
0.0
  0
LINE
  5
168
330
9C
100
AcDbEntity
  8
AM_BOR
  6
Continuous
 62
   179
100
AcDbLine
 10
263.24574
 20
11.91464325
 30
0.0
 11
262.6165275
 21
11.91464325
 31
0.0
  0
LINE
  5
169
330
9C
100
AcDbEntity
  8
AM_BOR
  6
Continuous
 62
   179
100
AcDbLine
 10
262.6165275
 20
11.91464325
 30
0.0
 11
262.6165275
 21
12.72891825
 31
0.0
  0
LINE
  5
16A
330
9C
100
AcDbEntity
  8
AM_BOR
  6
Continuous
 62
   179
100
AcDbLine
 10
262.6165275
 20
12.72891825
 30
0.0
 11
263.02445175
 21
12.72891825
 31
0.0
  0
LINE
  5
16B
330
9C
100
AcDbEntity
  8
AM_BOR
  6
Continuous
 62
   179
100
AcDbLine
 10
263.874952564
 20
11.7295809519
 30
0.0
 11
263.874952564
 21
11.91464325
 31
0.0
  0
LINE
  5
16C
330
9C
100
AcDbEntity
  8
AM_BOR
  6
Continuous
 62
   179
100
AcDbLine
 10
263.39379
 20
12.781179
 30
0.0
 11
263.39379
 21
13.24709325
 31
0.0
  0
LINE
  5
16D
330
9C
100
AcDbEntity
  8
AM_BOR
  6
Continuous
 62
   179
100
AcDbLine
 10
263.39379
 20
13.24709325
 30
0.0
 11
263.911965
 21
13.24709325
 31
0.0
  0
LINE
  5
16E
330
9C
100
AcDbEntity
  8
AM_BOR
  6
Continuous
 62
   179
100
AcDbLine
 10
263.911965
 20
13.24709325
 30
0.0
 11
263.911965
 21
13.54319325
 31
0.0
  0
LINE
  5
16F
330
9C
100
AcDbEntity
  8
AM_BOR
  6
Continuous
 62
   179
100
AcDbLine
 10
263.911965
 20
13.54319325
 30
0.0
 11
263.65870725
 21
13.54319325
 31
0.0
  0
LINE
  5
170
330
9C
100
AcDbEntity
  8
AM_BOR
  6
Continuous
 62
   179
100
AcDbLine
 10
263.65870725
 20
13.54319325
 30
0.0
 11
263.65870725
 21
13.39514325
 31
0.0
  0
LINE
  5
171
330
9C
100
AcDbEntity
  8
AM_BOR
  6
Continuous
 62
   179
100
AcDbLine
 10
263.65870725
 20
13.39514325
 30
0.0
 11
263.39379
 21
13.39514325
 31
0.0
  0
LINE
  5
172
330
9C
100
AcDbEntity
  8
AM_BOR
  6
Continuous
 62
   179
100
AcDbLine
 10
263.39379
 20
13.39514325
 30
0.0
 11
263.39379
 21
13.54319325
 31
0.0
  0
LINE
  5
173
330
9C
100
AcDbEntity
  8
AM_BOR
  6
Continuous
 62
   179
100
AcDbLine
 10
263.39379
 20
13.54319325
 30
0.0
 11
263.023665
 21
13.54319325
 31
0.0
  0
LINE
  5
174
330
9C
100
AcDbEntity
  8
AM_BOR
  6
Continuous
 62
   179
100
AcDbLine
 10
263.023665
 20
13.54319325
 30
0.0
 11
263.023665
 21
13.39514325
 31
0.0
  0
LINE
  5
175
330
9C
100
AcDbEntity
  8
AM_BOR
  6
Continuous
 62
   179
100
AcDbLine
 10
263.023665
 20
13.39514325
 30
0.0
 11
261.8762775
 21
13.39514325
 31
0.0
  0
LINE
  5
176
330
9C
100
AcDbEntity
  8
AM_BOR
  6
Continuous
 62
   179
100
AcDbLine
 10
261.8762775
 20
13.39514325
 30
0.0
 11
261.8762775
 21
13.24709325
 31
0.0
  0
LINE
  5
177
330
9C
100
AcDbEntity
  8
AM_BOR
  6
Continuous
 62
   179
100
AcDbLine
 10
261.8762775
 20
13.24709325
 30
0.0
 11
263.023665
 21
13.24709325
 31
0.0
  0
LINE
  5
178
330
9C
100
AcDbEntity
  8
AM_BOR
  6
Continuous
 62
   179
100
AcDbLine
 10
263.023665
 20
13.24709325
 30
0.0
 11
263.023665
 21
12.91398075
 31
0.0
  0
LINE
  5
179
330
9C
100
AcDbEntity
  8
AM_BOR
  6
Continuous
 62
   179
100
AcDbLine
 10
263.023665
 20
12.91398075
 30
0.0
 11
261.839265
 21
12.91398075
 31
0.0
  0
LINE
  5
17A
330
9C
100
AcDbEntity
  8
AM_BOR
  6
Continuous
 62
   179
100
AcDbLine
 10
264.060015
 20
12.91398075
 30
0.0
 11
264.060015
 21
13.09904325
 31
0.0
  0
LINE
  5
17B
330
9C
100
AcDbEntity
  8
AM_BOR
  6
Continuous
 62
   179
100
AcDbLine
 10
264.9483150224
 20
13.5431932537
 30
0.0
 11
265.2074025
 21
13.5431932537
 31
0.0
  0
LINE
  5
17C
330
9C
100
AcDbEntity
  8
AM_BOR
  6
Continuous
 62
   179
100
AcDbLine
 10
266.0957025301
 20
13.0990432309
 30
0.0
 11
266.0957025301
 21
12.91398075
 31
0.0
  0
LINE
  5
17D
330
9C
100
AcDbEntity
  8
AM_BOR
  6
Continuous
 62
   179
100
AcDbLine
 10
264.060015
 20
12.8178465
 30
0.0
 11
266.0957025
 21
12.8178465
 31
0.0
  0
LINE
  5
17E
330
9C
100
AcDbEntity
  8
AM_BOR
  6
Continuous
 62
   179
100
AcDbLine
 10
266.0957025
 20
12.8178465
 30
0.0
 11
266.0957025
 21
12.6697965
 31
0.0
  0
LINE
  5
17F
330
9C
100
AcDbEntity
  8
AM_BOR
  6
Continuous
 62
   179
100
AcDbLine
 10
266.0957025
 20
12.6697965
 30
0.0
 11
264.060015
 21
12.6697965
 31
0.0
  0
LINE
  5
180
330
9C
100
AcDbEntity
  8
AM_BOR
  6
Continuous
 62
   179
100
AcDbLine
 10
264.060015
 20
12.6697965
 30
0.0
 11
264.060015
 21
12.8178465
 31
0.0
  0
LINE
  5
181
330
9C
100
AcDbEntity
  8
AM_BOR
  6
Continuous
 62
   179
100
AcDbLine
 10
264.060015
 20
12.46983075
 30
0.0
 11
266.0957025
 21
12.46983075
 31
0.0
  0
LINE
  5
182
330
9C
100
AcDbEntity
  8
AM_BOR
  6
Continuous
 62
   179
100
AcDbLine
 10
266.0957025
 20
12.46983075
 30
0.0
 11
266.0957025
 21
12.32178075
 31
0.0
  0
LINE
  5
183
330
9C
100
AcDbEntity
  8
AM_BOR
  6
Continuous
 62
   179
100
AcDbLine
 10
266.0957025
 20
12.32178075
 30
0.0
 11
264.9853275
 21
12.32178075
 31
0.0
  0
LINE
  5
184
330
9C
100
AcDbEntity
  8
AM_BOR
  6
Continuous
 62
   179
100
AcDbLine
 10
264.9853275
 20
12.32178075
 30
0.0
 11
264.72624
 21
11.91464325
 31
0.0
  0
LINE
  5
185
330
9C
100
AcDbEntity
  8
AM_BOR
  6
Continuous
 62
   179
100
AcDbLine
 10
264.72624
 20
11.91464325
 30
0.0
 11
265.09943325
 21
11.91464325
 31
0.0
  0
LINE
  5
186
330
9C
100
AcDbEntity
  8
AM_BOR
  6
Continuous
 62
   179
100
AcDbLine
 10
265.3554528417
 20
12.1737309843
 30
0.0
 11
265.7255775
 21
12.1737309843
 31
0.0
  0
LINE
  5
187
330
9C
100
AcDbEntity
  8
AM_BOR
  6
Continuous
 62
   179
100
AcDbLine
 10
266.0957024416
 20
11.9146433399
 30
0.0
 11
266.0957024416
 21
11.72958075
 31
0.0
  0
LINE
  5
188
330
9C
100
AcDbEntity
  8
AM_BOR
  6
Continuous
 62
   179
100
AcDbLine
 10
265.21041075
 20
11.72958075
 30
0.0
 11
264.060015
 21
11.72958075
 31
0.0
  0
LINE
  5
189
330
9C
100
AcDbEntity
  8
AM_BOR
  6
Continuous
 62
   179
100
AcDbLine
 10
264.060015
 20
11.72958075
 30
0.0
 11
264.060015
 21
11.91464325
 31
0.0
  0
LINE
  5
18A
330
9C
100
AcDbEntity
  8
AM_BOR
  6
Continuous
 62
   179
100
AcDbLine
 10
264.060015
 20
11.91464325
 30
0.0
 11
264.356115
 21
11.91464325
 31
0.0
  0
LINE
  5
18B
330
9C
100
AcDbEntity
  8
AM_BOR
  6
Continuous
 62
   179
100
AcDbLine
 10
264.356115
 20
11.91464325
 30
0.0
 11
264.6152025
 21
12.32178075
 31
0.0
  0
LINE
  5
18C
330
9C
100
AcDbEntity
  8
AM_BOR
  6
Continuous
 62
   179
100
AcDbLine
 10
264.6152025
 20
12.32178075
 30
0.0
 11
264.060015
 21
12.32178075
 31
0.0
  0
LINE
  5
18D
330
9C
100
AcDbEntity
  8
AM_BOR
  6
Continuous
 62
   179
100
AcDbLine
 10
264.060015
 20
12.32178075
 30
0.0
 11
264.060015
 21
12.46983075
 31
0.0
  0
LINE
  5
18E
330
9C
100
AcDbEntity
  8
AM_BOR
  6
Continuous
 62
   179
100
AcDbLine
 10
266.7619274857
 20
13.2470933114
 30
0.0
 11
266.2437525
 21
13.2470933114
 31
0.0
  0
LINE
  5
18F
330
9C
100
AcDbEntity
  8
AM_BOR
  6
Continuous
 62
   179
100
AcDbLine
 10
266.2437525
 20
13.24709325
 30
0.0
 11
266.2437525
 21
13.39514325
 31
0.0
  0
LINE
  5
190
330
9C
100
AcDbEntity
  8
AM_BOR
  6
Continuous
 62
   179
100
AcDbLine
 10
266.2437525
 20
13.39514325
 30
0.0
 11
266.4658275
 21
13.39514325
 31
0.0
  0
LINE
  5
191
330
9C
100
AcDbEntity
  8
AM_BOR
  6
Continuous
 62
   179
100
AcDbLine
 10
266.4658275
 20
13.39514325
 30
0.0
 11
266.4658275
 21
13.54319325
 31
0.0
  0
LINE
  5
192
330
9C
100
AcDbEntity
  8
AM_BOR
  6
Continuous
 62
   179
100
AcDbLine
 10
266.4658275
 20
13.54319325
 30
0.0
 11
266.7619275
 21
13.54319325
 31
0.0
  0
LINE
  5
193
330
9C
100
AcDbEntity
  8
AM_BOR
  6
Continuous
 62
   179
100
AcDbLine
 10
266.7619275
 20
13.54319325
 30
0.0
 11
266.7619275
 21
13.39514325
 31
0.0
  0
LINE
  5
194
330
9C
100
AcDbEntity
  8
AM_BOR
  6
Continuous
 62
   179
100
AcDbLine
 10
266.7619275
 20
13.39514325
 30
0.0
 11
267.169065
 21
13.39514325
 31
0.0
  0
LINE
  5
195
330
9C
100
AcDbEntity
  8
AM_BOR
  6
Continuous
 62
   179
100
AcDbLine
 10
267.0950401106
 20
12.5438553963
 30
0.0
 11
267.0950401106
 21
12.32178075
 31
0.0
  0
LINE
  5
196
330
9C
100
AcDbEntity
  8
AM_BOR
  6
Continuous
 62
   179
100
AcDbLine
 10
266.7619270411
 20
12.5068428552
 30
0.0
 11
266.7619275
 21
11.72958075
 31
0.0
  0
LINE
  5
197
330
9C
100
AcDbEntity
  8
AM_BOR
  6
Continuous
 62
   179
100
AcDbLine
 10
266.7619275
 20
11.72958075
 30
0.0
 11
266.4658275
 21
11.72958075
 31
0.0
  0
LINE
  5
198
330
9C
100
AcDbEntity
  8
AM_BOR
  6
Continuous
 62
   179
100
AcDbLine
 10
266.4658275
 20
11.72958075
 30
0.0
 11
266.4658275
 21
12.41475225
 31
0.0
  0
LINE
  5
199
330
9C
100
AcDbEntity
  8
AM_BOR
  6
Continuous
 62
   179
100
AcDbLine
 10
266.206740184
 20
12.3217811505
 30
0.0
 11
266.206740184
 21
12.5068434883
 31
0.0
  0
LINE
  5
19A
330
9C
100
AcDbEntity
  8
AM_BOR
  6
Continuous
 62
   179
100
AcDbLine
 10
266.9099775
 20
11.91464325
 30
0.0
 11
267.465165
 21
11.91464325
 31
0.0
  0
LINE
  5
19B
330
9C
100
AcDbEntity
  8
AM_BOR
  6
Continuous
 62
   179
100
AcDbLine
 10
267.465165
 20
11.91464325
 30
0.0
 11
267.465165
 21
13.24709325
 31
0.0
  0
LINE
  5
19C
330
9C
100
AcDbEntity
  8
AM_BOR
  6
Continuous
 62
   179
100
AcDbLine
 10
267.465165
 20
13.24709325
 30
0.0
 11
267.24309
 21
13.24709325
 31
0.0
  0
LINE
  5
19D
330
9C
100
AcDbEntity
  8
AM_BOR
  6
Continuous
 62
   179
100
AcDbLine
 10
267.24309
 20
13.24709325
 30
0.0
 11
267.24309
 21
13.39514325
 31
0.0
  0
LINE
  5
19E
330
9C
100
AcDbEntity
  8
AM_BOR
  6
Continuous
 62
   179
100
AcDbLine
 10
267.24309
 20
13.39514325
 30
0.0
 11
267.465165
 21
13.39514325
 31
0.0
  0
LINE
  5
19F
330
9C
100
AcDbEntity
  8
AM_BOR
  6
Continuous
 62
   179
100
AcDbLine
 10
267.465165
 20
13.39514325
 30
0.0
 11
267.465165
 21
13.54319325
 31
0.0
  0
LINE
  5
1A0
330
9C
100
AcDbEntity
  8
AM_BOR
  6
Continuous
 62
   179
100
AcDbLine
 10
267.465165
 20
13.54319325
 30
0.0
 11
267.83529
 21
13.54319325
 31
0.0
  0
LINE
  5
1A1
330
9C
100
AcDbEntity
  8
AM_BOR
  6
Continuous
 62
   179
100
AcDbLine
 10
267.83529
 20
13.54319325
 30
0.0
 11
267.83529
 21
13.39514325
 31
0.0
  0
LINE
  5
1A2
330
9C
100
AcDbEntity
  8
AM_BOR
  6
Continuous
 62
   179
100
AcDbLine
 10
267.83529
 20
13.39514325
 30
0.0
 11
268.205415
 21
13.39514325
 31
0.0
  0
LINE
  5
1A3
330
9C
100
AcDbEntity
  8
AM_BOR
  6
Continuous
 62
   179
100
AcDbLine
 10
268.205415
 20
13.39514325
 30
0.0
 11
268.205415
 21
13.24709325
 31
0.0
  0
LINE
  5
1A4
330
9C
100
AcDbEntity
  8
AM_BOR
  6
Continuous
 62
   179
100
AcDbLine
 10
268.205415
 20
13.24709325
 30
0.0
 11
267.83529
 21
13.24709325
 31
0.0
  0
LINE
  5
1A5
330
9C
100
AcDbEntity
  8
AM_BOR
  6
Continuous
 62
   179
100
AcDbLine
 10
267.83529
 20
13.24709325
 30
0.0
 11
267.83529
 21
11.91464325
 31
0.0
  0
LINE
  5
1A6
330
9C
100
AcDbEntity
  8
AM_BOR
  6
Continuous
 62
   179
100
AcDbLine
 10
267.83529
 20
11.91464325
 30
0.0
 11
268.2424275
 21
11.91464325
 31
0.0
  0
LINE
  5
1A7
330
9C
100
AcDbEntity
  8
AM_BOR
  6
Continuous
 62
   179
100
AcDbLine
 10
268.2424275
 20
11.91464325
 30
0.0
 11
268.2424275
 21
11.72958075
 31
0.0
  0
LINE
  5
1A8
330
9C
100
AcDbEntity
  8
AM_BOR
  6
Continuous
 62
   179
100
AcDbLine
 10
268.2424275
 20
11.72958075
 30
0.0
 11
266.9099775
 21
11.72958075
 31
0.0
  0
LINE
  5
1A9
330
9C
100
AcDbEntity
  8
AM_BOR
  6
Continuous
 62
   179
100
AcDbLine
 10
266.9099775
 20
11.72958075
 30
0.0
 11
266.9099775
 21
11.91464325
 31
0.0
  0
LINE
  5
1AA
330
9C
100
AcDbEntity
  8
AM_BOR
  6
Continuous
 62
   179
100
AcDbLine
 10
258.7672275
 20
13.06203075
 30
0.0
 11
258.7672275
 21
13.24709325
 31
0.0
  0
LINE
  5
1AB
330
9C
100
AcDbEntity
  8
AM_BOR
  6
Continuous
 62
   179
100
AcDbLine
 10
258.7672275
 20
13.24709325
 30
0.0
 11
258.1750275
 21
13.24709325
 31
0.0
  0
LINE
  5
1AC
330
9C
100
AcDbEntity
  8
AM_BOR
  6
Continuous
 62
   179
100
AcDbLine
 10
258.1750275
 20
13.24709325
 30
0.0
 11
258.1750275
 21
13.06203075
 31
0.0
  0
LINE
  5
1AD
330
9C
100
AcDbEntity
  8
AM_BOR
  6
Continuous
 62
   179
100
AcDbLine
 10
258.1750275
 20
13.06203075
 30
0.0
 11
258.7672275
 21
13.06203075
 31
0.0
  0
LINE
  5
1AE
330
9C
100
AcDbEntity
  8
AM_BOR
  6
Continuous
 62
   179
100
AcDbLine
 10
258.80424
 20
12.25908825
 30
0.0
 11
259.3559505
 21
12.25908825
 31
0.0
  0
LINE
  5
1AF
330
9C
100
AcDbEntity
  8
AM_BOR
  6
Continuous
 62
   179
100
AcDbLine
 10
258.50814
 20
12.25908825
 30
0.0
 11
257.9149695
 21
12.25908825
 31
0.0
  0
LINE
  5
1B0
330
9C
100
AcDbEntity
  8
AM_BOR
  6
Continuous
 62
   179
100
AcDbLine
 10
255.3273195
 20
11.72958075
 30
0.0
 11
255.142257
 21
11.91464325
 31
0.0
  0
LINE
  5
1B1
330
9C
100
AcDbEntity
  8
AM_BOR
  6
Continuous
 62
   179
100
AcDbLine
 10
255.551649
 20
11.72958075
 30
0.0
 11
255.3665865
 21
11.91464325
 31
0.0
  0
LINE
  5
1B2
330
9C
100
AcDbEntity
  8
AM_BOR
  6
Continuous
 62
   179
100
AcDbLine
 10
255.77597925
 20
11.72958075
 30
0.0
 11
255.59091675
 21
11.91464325
 31
0.0
  0
LINE
  5
1B3
330
9C
100
AcDbEntity
  8
AM_BOR
  6
Continuous
 62
   179
100
AcDbLine
 10
256.00030875
 20
11.72958075
 30
0.0
 11
255.81524625
 21
11.91464325
 31
0.0
  0
LINE
  5
1B4
330
9C
100
AcDbEntity
  8
AM_BOR
  6
Continuous
 62
   179
100
AcDbLine
 10
256.22463825
 20
11.72958075
 30
0.0
 11
255.9542775
 21
11.9999415
 31
0.0
  0
LINE
  5
1B5
330
9C
100
AcDbEntity
  8
AM_BOR
  6
Continuous
 62
   179
100
AcDbLine
 10
256.44896775
 20
11.72958075
 30
0.0
 11
255.9542775
 21
12.224271
 31
0.0
  0
LINE
  5
1B6
330
9C
100
AcDbEntity
  8
AM_BOR
  6
Continuous
 62
   179
100
AcDbLine
 10
256.67329725
 20
11.72958075
 30
0.0
 11
256.48823475
 21
11.91464325
 31
0.0
  0
LINE
  5
1B7
330
9C
100
AcDbEntity
  8
AM_BOR
  6
Continuous
 62
   179
100
AcDbLine
 10
256.3244025
 20
12.0784755
 30
0.0
 11
255.9542775
 21
12.4486005
 31
0.0
  0
LINE
  5
1B8
330
9C
100
AcDbEntity
  8
AM_BOR
  6
Continuous
 62
   179
100
AcDbLine
 10
256.89762675
 20
11.72958075
 30
0.0
 11
256.71256425
 21
11.91464325
 31
0.0
  0
LINE
  5
1B9
330
9C
100
AcDbEntity
  8
AM_BOR
  6
Continuous
 62
   179
100
AcDbLine
 10
256.3244025
 20
12.302805
 30
0.0
 11
255.9542775
 21
12.67293
 31
0.0
  0
LINE
  5
1BA
330
9C
100
AcDbEntity
  8
AM_BOR
  6
Continuous
 62
   179
100
AcDbLine
 10
255.41712675
 20
13.21008075
 30
0.0
 11
255.25104
 21
13.3761675
 31
0.0
  0
LINE
  5
1BB
330
9C
100
AcDbEntity
  8
AM_BOR
  6
Continuous
 62
   179
100
AcDbLine
 10
257.121957
 20
11.72958075
 30
0.0
 11
256.9368945
 21
11.91464325
 31
0.0
  0
LINE
  5
1BC
330
9C
100
AcDbEntity
  8
AM_BOR
  6
Continuous
 62
   179
100
AcDbLine
 10
256.3244025
 20
12.5271345
 30
0.0
 11
255.9542775
 21
12.8972595
 31
0.0
  0
LINE
  5
1BD
330
9C
100
AcDbEntity
  8
AM_BOR
  6
Continuous
 62
   179
100
AcDbLine
 10
255.641457
 20
13.21008075
 30
0.0
 11
255.4563945
 21
13.39514325
 31
0.0
  0
LINE
  5
1BE
330
9C
100
AcDbEntity
  8
AM_BOR
  6
Continuous
 62
   179
100
AcDbLine
 10
257.17569
 20
11.90017725
 30
0.0
 11
257.161224
 21
11.91464325
 31
0.0
  0
LINE
  5
1BF
330
9C
100
AcDbEntity
  8
AM_BOR
  6
Continuous
 62
   179
100
AcDbLine
 10
256.3244025
 20
12.75146475
 30
0.0
 11
255.9542775
 21
13.12158975
 31
0.0
  0
LINE
  5
1C0
330
9C
100
AcDbEntity
  8
AM_BOR
  6
Continuous
 62
   179
100
AcDbLine
 10
255.8657865
 20
13.21008075
 30
0.0
 11
255.680724
 21
13.39514325
 31
0.0
  0
LINE
  5
1C1
330
9C
100
AcDbEntity
  8
AM_BOR
  6
Continuous
 62
   179
100
AcDbLine
 10
256.3244025
 20
12.97579425
 30
0.0
 11
255.9050535
 21
13.39514325
 31
0.0
  0
LINE
  5
1C2
330
9C
100
AcDbEntity
  8
AM_BOR
  6
Continuous
 62
   179
100
AcDbLine
 10
256.3244025
 20
13.20012375
 30
0.0
 11
256.129383
 21
13.39514325
 31
0.0
  0
LINE
  5
1C3
330
9C
100
AcDbEntity
  8
AM_BOR
  6
Continuous
 62
   179
100
AcDbLine
 10
256.538775
 20
13.21008075
 30
0.0
 11
256.3537125
 21
13.39514325
 31
0.0
  0
LINE
  5
1C4
330
9C
100
AcDbEntity
  8
AM_BOR
  6
Continuous
 62
   179
100
AcDbLine
 10
256.7631045
 20
13.21008075
 30
0.0
 11
256.578042
 21
13.39514325
 31
0.0
  0
LINE
  5
1C5
330
9C
100
AcDbEntity
  8
AM_BOR
  6
Continuous
 62
   179
100
AcDbLine
 10
256.98743475
 20
13.21008075
 30
0.0
 11
256.80237225
 21
13.39514325
 31
0.0
  0
LINE
  5
1C6
330
9C
100
AcDbEntity
  8
AM_BOR
  6
Continuous
 62
   179
100
AcDbLine
 10
257.02764
 20
13.394205
 30
0.0
 11
257.02670175
 21
13.39514325
 31
0.0
  0
LINE
  5
1C7
330
9C
100
AcDbEntity
  8
AM_BOR
  6
Continuous
 62
   179
100
AcDbLine
 10
259.10034
 20
11.72958075
 30
0.0
 11
258.9152775
 21
11.91464325
 31
0.0
  0
LINE
  5
1C8
330
9C
100
AcDbEntity
  8
AM_BOR
  6
Continuous
 62
   179
100
AcDbLine
 10
258.80424
 20
12.02568075
 30
0.0
 11
258.50814
 21
12.32178075
 31
0.0
  0
LINE
  5
1C9
330
9C
100
AcDbEntity
  8
AM_BOR
  6
Continuous
 62
   179
100
AcDbLine
 10
258.36009
 20
12.46983075
 30
0.0
 11
258.21204
 21
12.61788075
 31
0.0
  0
LINE
  5
1CA
330
9C
100
AcDbEntity
  8
AM_BOR
  6
Continuous
 62
   179
100
AcDbLine
 10
257.9529525
 20
12.87696825
 30
0.0
 11
257.76789
 21
13.06203075
 31
0.0
  0
LINE
  5
1CB
330
9C
100
AcDbEntity
  8
AM_BOR
  6
Continuous
 62
   179
100
AcDbLine
 10
257.5828275
 20
13.24709325
 30
0.0
 11
257.4347775
 21
13.39514325
 31
0.0
  0
LINE
  5
1CC
330
9C
100
AcDbEntity
  8
AM_BOR
  6
Continuous
 62
   179
100
AcDbLine
 10
258.8760105
 20
11.72958075
 30
0.0
 11
258.50814
 21
12.09745125
 31
0.0
  0
LINE
  5
1CD
330
9C
100
AcDbEntity
  8
AM_BOR
  6
Continuous
 62
   179
100
AcDbLine
 10
258.494553
 20
12.11103825
 30
0.0
 11
258.346503
 21
12.25908825
 31
0.0
  0
LINE
  5
1CE
330
9C
100
AcDbEntity
  8
AM_BOR
  6
Continuous
 62
   179
100
AcDbLine
 10
258.1357605
 20
12.46983075
 30
0.0
 11
257.8396605
 21
12.76593075
 31
0.0
  0
LINE
  5
1CF
330
9C
100
AcDbEntity
  8
AM_BOR
  6
Continuous
 62
   179
100
AcDbLine
 10
257.728623
 20
12.87696825
 30
0.0
 11
257.5435605
 21
13.06203075
 31
0.0
  0
LINE
  5
1D0
330
9C
100
AcDbEntity
  8
AM_BOR
  6
Continuous
 62
   179
100
AcDbLine
 10
258.651681
 20
11.72958075
 30
0.0
 11
258.4666185
 21
11.91464325
 31
0.0
  0
LINE
  5
1D1
330
9C
100
AcDbEntity
  8
AM_BOR
  6
Continuous
 62
   179
100
AcDbLine
 10
258.2702235
 20
12.11103825
 30
0.0
 11
258.1221735
 21
12.25908825
 31
0.0
  0
LINE
  5
1D2
330
9C
100
AcDbEntity
  8
AM_BOR
  6
Continuous
 62
   179
100
AcDbLine
 10
257.911431
 20
12.46983075
 30
0.0
 11
257.8049025
 21
12.57635925
 31
0.0
  0
LINE
  5
1D3
330
9C
100
AcDbEntity
  8
AM_BOR
  6
Continuous
 62
   179
100
AcDbLine
 10
257.70651075
 20
12.674751
 30
0.0
 11
257.397765
 21
12.98349675
 31
0.0
  0
LINE
  5
1D4
330
9C
100
AcDbEntity
  8
AM_BOR
  6
Continuous
 62
   179
100
AcDbLine
 10
258.4273515
 20
11.72958075
 30
0.0
 11
258.242289
 21
11.91464325
 31
0.0
  0
LINE
  5
1D5
330
9C
100
AcDbEntity
  8
AM_BOR
  6
Continuous
 62
   179
100
AcDbLine
 10
258.045894
 20
12.11103825
 30
0.0
 11
257.9149695
 21
12.24196275
 31
0.0
  0
LINE
  5
1D6
330
9C
100
AcDbEntity
  8
AM_BOR
  6
Continuous
 62
   179
100
AcDbLine
 10
257.70651075
 20
12.45042075
 30
0.0
 11
257.397765
 21
12.7591665
 31
0.0
  0
LINE
  5
1D7
330
9C
100
AcDbEntity
  8
AM_BOR
  6
Continuous
 62
   179
100
AcDbLine
 10
258.20302125
 20
11.72958075
 30
0.0
 11
258.01795875
 21
11.91464325
 31
0.0
  0
LINE
  5
1D8
330
9C
100
AcDbEntity
  8
AM_BOR
  6
Continuous
 62
   179
100
AcDbLine
 10
257.70651075
 20
12.22609125
 30
0.0
 11
257.397765
 21
12.534837
 31
0.0
  0
LINE
  5
1D9
330
9C
100
AcDbEntity
  8
AM_BOR
  6
Continuous
 62
   179
100
AcDbLine
 10
257.97869175
 20
11.72958075
 30
0.0
 11
257.841915
 21
11.8663575
 31
0.0
  0
LINE
  5
1DA
330
9C
100
AcDbEntity
  8
AM_BOR
  6
Continuous
 62
   179
100
AcDbLine
 10
257.67392925
 20
12.034344
 30
0.0
 11
257.397765
 21
12.3105075
 31
0.0
  0
LINE
  5
1DB
330
9C
100
AcDbEntity
  8
AM_BOR
  6
Continuous
 62
   179
100
AcDbLine
 10
257.5908135
 20
11.8931295
 30
0.0
 11
257.3878755
 21
12.0960675
 31
0.0
  0
LINE
  5
1DC
330
9C
100
AcDbEntity
  8
AM_BOR
  6
Continuous
 62
   179
100
AcDbLine
 10
257.4702165
 20
11.78939625
 30
0.0
 11
257.32723125
 21
11.93238225
 31
0.0
  0
LINE
  5
1DD
330
9C
100
AcDbEntity
  8
AM_BOR
  6
Continuous
 62
   179
100
AcDbLine
 10
259.3246695
 20
11.72958075
 30
0.0
 11
259.139607
 21
11.91464325
 31
0.0
  0
LINE
  5
1DE
330
9C
100
AcDbEntity
  8
AM_BOR
  6
Continuous
 62
   179
100
AcDbLine
 10
258.943212
 20
12.11103825
 30
0.0
 11
258.4363695
 21
12.61788075
 31
0.0
  0
LINE
  5
1DF
330
9C
100
AcDbEntity
  8
AM_BOR
  6
Continuous
 62
   179
100
AcDbLine
 10
258.177282
 20
12.87696825
 30
0.0
 11
257.8789275
 21
13.17532275
 31
0.0
  0
LINE
  5
1E0
330
9C
100
AcDbEntity
  8
AM_BOR
  6
Continuous
 62
   179
100
AcDbLine
 10
257.807157
 20
13.24709325
 30
0.0
 11
257.659107
 21
13.39514325
 31
0.0
  0
LINE
  5
1E1
330
9C
100
AcDbEntity
  8
AM_BOR
  6
Continuous
 62
   179
100
AcDbLine
 10
259.470465
 20
11.80811475
 30
0.0
 11
259.3639365
 21
11.91464325
 31
0.0
  0
LINE
  5
1E2
330
9C
100
AcDbEntity
  8
AM_BOR
  6
Continuous
 62
   179
100
AcDbLine
 10
259.16754225
 20
12.11103825
 30
0.0
 11
259.01949225
 21
12.25908825
 31
0.0
  0
LINE
  5
1E3
330
9C
100
AcDbEntity
  8
AM_BOR
  6
Continuous
 62
   179
100
AcDbLine
 10
258.808749
 20
12.46983075
 30
0.0
 11
258.512649
 21
12.76593075
 31
0.0
  0
LINE
  5
1E4
330
9C
100
AcDbEntity
  8
AM_BOR
  6
Continuous
 62
   179
100
AcDbLine
 10
258.4016115
 20
12.87696825
 30
0.0
 11
258.216549
 21
13.06203075
 31
0.0
  0
LINE
  5
1E5
330
9C
100
AcDbEntity
  8
AM_BOR
  6
Continuous
 62
   179
100
AcDbLine
 10
259.3559505
 20
12.14695875
 30
0.0
 11
259.24382175
 21
12.25908825
 31
0.0
  0
LINE
  5
1E6
330
9C
100
AcDbEntity
  8
AM_BOR
  6
Continuous
 62
   179
100
AcDbLine
 10
259.03307925
 20
12.46983075
 30
0.0
 11
258.88502925
 21
12.61788075
 31
0.0
  0
LINE
  5
1E7
330
9C
100
AcDbEntity
  8
AM_BOR
  6
Continuous
 62
   179
100
AcDbLine
 10
258.80424
 20
12.69866925
 30
0.0
 11
258.73697925
 21
12.76593075
 31
0.0
  0
LINE
  5
1E8
330
9C
100
AcDbEntity
  8
AM_BOR
  6
Continuous
 62
   179
100
AcDbLine
 10
258.62594175
 20
12.87696825
 30
0.0
 11
258.44087925
 21
13.06203075
 31
0.0
  0
LINE
  5
1E9
330
9C
100
AcDbEntity
  8
AM_BOR
  6
Continuous
 62
   179
100
AcDbLine
 10
259.25740875
 20
12.46983075
 30
0.0
 11
259.10935875
 21
12.61788075
 31
0.0
  0
LINE
  5
1EA
330
9C
100
AcDbEntity
  8
AM_BOR
  6
Continuous
 62
   179
100
AcDbLine
 10
258.85027125
 20
12.87696825
 30
0.0
 11
258.66520875
 21
13.06203075
 31
0.0
  0
LINE
  5
1EB
330
9C
100
AcDbEntity
  8
AM_BOR
  6
Continuous
 62
   179
100
AcDbLine
 10
259.4334525
 20
12.5181165
 30
0.0
 11
259.33368825
 21
12.61788075
 31
0.0
  0
LINE
  5
1EC
330
9C
100
AcDbEntity
  8
AM_BOR
  6
Continuous
 62
   179
100
AcDbLine
 10
259.07460075
 20
12.87696825
 30
0.0
 11
258.7672275
 21
13.1843415
 31
0.0
  0
LINE
  5
1ED
330
9C
100
AcDbEntity
  8
AM_BOR
  6
Continuous
 62
   179
100
AcDbLine
 10
259.29893025
 20
12.87696825
 30
0.0
 11
259.11386775
 21
13.06203075
 31
0.0
  0
LINE
  5
1EE
330
9C
100
AcDbEntity
  8
AM_BOR
  6
Continuous
 62
   179
100
AcDbLine
 10
259.10034
 20
13.0755585
 30
0.0
 11
258.78075525
 21
13.39514325
 31
0.0
  0
LINE
  5
1EF
330
9C
100
AcDbEntity
  8
AM_BOR
  6
Continuous
 62
   179
100
AcDbLine
 10
258.65619
 20
13.5197085
 30
0.0
 11
258.63270525
 21
13.54319325
 31
0.0
  0
LINE
  5
1F0
330
9C
100
AcDbEntity
  8
AM_BOR
  6
Continuous
 62
   179
100
AcDbLine
 10
259.470465
 20
12.929763
 30
0.0
 11
259.33819725
 21
13.06203075
 31
0.0
  0
LINE
  5
1F1
330
9C
100
AcDbEntity
  8
AM_BOR
  6
Continuous
 62
   179
100
AcDbLine
 10
259.15313475
 20
13.24709325
 30
0.0
 11
259.00508475
 21
13.39514325
 31
0.0
  0
LINE
  5
1F2
330
9C
100
AcDbEntity
  8
AM_BOR
  6
Continuous
 62
   179
100
AcDbLine
 10
259.37746425
 20
13.24709325
 30
0.0
 11
259.22941425
 21
13.39514325
 31
0.0
  0
LINE
  5
1F3
330
9C
100
AcDbEntity
  8
AM_BOR
  6
Continuous
 62
   179
100
AcDbLine
 10
259.470465
 20
13.378422
 30
0.0
 11
259.4537445
 21
13.39514325
 31
0.0
  0
LINE
  5
1F4
330
9C
100
AcDbEntity
  8
AM_BOR
  6
Continuous
 62
   179
100
AcDbLine
 10
258.70447575
 20
13.24709325
 30
0.0
 11
258.40837575
 21
13.54319325
 31
0.0
  0
LINE
  5
1F5
330
9C
100
AcDbEntity
  8
AM_BOR
  6
Continuous
 62
   179
100
AcDbLine
 10
258.48014625
 20
13.24709325
 30
0.0
 11
258.286065
 21
13.4411745
 31
0.0
  0
LINE
  5
1F6
330
9C
100
AcDbEntity
  8
AM_BOR
  6
Continuous
 62
   179
100
AcDbLine
 10
258.25581675
 20
13.24709325
 30
0.0
 11
258.10776675
 21
13.39514325
 31
0.0
  0
LINE
  5
1F7
330
9C
100
AcDbEntity
  8
AM_BOR
  6
Continuous
 62
   179
100
AcDbLine
 10
258.1750275
 20
13.10355225
 30
0.0
 11
257.8834365
 21
13.39514325
 31
0.0
  0
LINE
  5
1F8
330
9C
100
AcDbEntity
  8
AM_BOR
  6
Continuous
 62
   179
100
AcDbLine
 10
261.5359095
 20
11.84787375
 30
0.0
 11
261.3909045
 21
11.99287875
 31
0.0
  0
LINE
  5
1F9
330
9C
100
AcDbEntity
  8
AM_BOR
  6
Continuous
 62
   179
100
AcDbLine
 10
261.2100525
 20
12.17373075
 30
0.0
 11
260.3417355
 21
13.04204775
 31
0.0
  0
LINE
  5
1FA
330
9C
100
AcDbEntity
  8
AM_BOR
  6
Continuous
 62
   179
100
AcDbLine
 10
260.1737025
 20
13.21008075
 30
0.0
 11
259.84059
 21
13.54319325
 31
0.0
  0
LINE
  5
1FB
330
9C
100
AcDbEntity
  8
AM_BOR
  6
Continuous
 62
   179
100
AcDbLine
 10
261.2100525
 20
11.94940125
 30
0.0
 11
260.87694
 21
12.28251375
 31
0.0
  0
LINE
  5
1FC
330
9C
100
AcDbEntity
  8
AM_BOR
  6
Continuous
 62
   179
100
AcDbLine
 10
260.85825375
 20
12.3012
 30
0.0
 11
260.617728
 21
12.54172575
 31
0.0
  0
LINE
  5
1FD
330
9C
100
AcDbEntity
  8
AM_BOR
  6
Continuous
 62
   179
100
AcDbLine
 10
260.393523
 20
12.76593075
 30
0.0
 11
260.39090325
 21
12.7685505
 31
0.0
  0
LINE
  5
1FE
330
9C
100
AcDbEntity
  8
AM_BOR
  6
Continuous
 62
   179
100
AcDbLine
 10
260.3217525
 20
12.83770125
 30
0.0
 11
260.31870375
 21
12.84075
 31
0.0
  0
LINE
  5
1FF
330
9C
100
AcDbEntity
  8
AM_BOR
  6
Continuous
 62
   179
100
AcDbLine
 10
260.14501875
 20
13.014435
 30
0.0
 11
259.7643105
 21
13.39514325
 31
0.0
  0
LINE
  5
200
330
9C
100
AcDbEntity
  8
AM_BOR
  6
Continuous
 62
   179
100
AcDbLine
 10
261.2055435
 20
11.72958075
 30
0.0
 11
260.87694
 21
12.05818425
 31
0.0
  0
LINE
  5
201
330
9C
100
AcDbEntity
  8
AM_BOR
  6
Continuous
 62
   179
100
AcDbLine
 10
260.79321
 20
12.14191425
 30
0.0
 11
260.59452825
 21
12.340596
 31
0.0
  0
LINE
  5
202
330
9C
100
AcDbEntity
  8
AM_BOR
  6
Continuous
 62
   179
100
AcDbLine
 10
260.25671175
 20
12.6784125
 30
0.0
 11
259.84059
 21
13.09453425
 31
0.0
  0
LINE
  5
203
330
9C
100
AcDbEntity
  8
AM_BOR
  6
Continuous
 62
   179
100
AcDbLine
 10
259.7250435
 20
13.21008075
 30
0.0
 11
259.618515
 21
13.31660925
 31
0.0
  0
LINE
  5
204
330
9C
100
AcDbEntity
  8
AM_BOR
  6
Continuous
 62
   179
100
AcDbLine
 10
260.981214
 20
11.72958075
 30
0.0
 11
260.87694
 21
11.833854
 31
0.0
  0
LINE
  5
205
330
9C
100
AcDbEntity
  8
AM_BOR
  6
Continuous
 62
   179
100
AcDbLine
 10
260.70568875
 20
12.005106
 30
0.0
 11
260.54127075
 21
12.16952325
 31
0.0
  0
LINE
  5
206
330
9C
100
AcDbEntity
  8
AM_BOR
  6
Continuous
 62
   179
100
AcDbLine
 10
260.13669
 20
12.574104
 30
0.0
 11
259.84059
 21
12.870204
 31
0.0
  0
LINE
  5
207
330
9C
100
AcDbEntity
  8
AM_BOR
  6
Continuous
 62
   179
100
AcDbLine
 10
260.598243
 20
11.8882215
 30
0.0
 11
260.46554925
 21
12.02091525
 31
0.0
  0
LINE
  5
208
330
9C
100
AcDbEntity
  8
AM_BOR
  6
Continuous
 62
   179
100
AcDbLine
 10
260.13669
 20
12.3497745
 30
0.0
 11
259.82684925
 21
12.65961525
 31
0.0
  0
LINE
  5
209
330
9C
100
AcDbEntity
  8
AM_BOR
  6
Continuous
 62
   179
100
AcDbLine
 10
260.47131675
 20
11.79081825
 30
0.0
 11
260.37078
 21
11.891355
 31
0.0
  0
LINE
  5
20A
330
9C
100
AcDbEntity
  8
AM_BOR
  6
Continuous
 62
   179
100
AcDbLine
 10
260.13669
 20
12.125445
 30
0.0
 11
259.75609275
 21
12.506043
 31
0.0
  0
LINE
  5
20B
330
9C
100
AcDbEntity
  8
AM_BOR
  6
Continuous
 62
   179
100
AcDbLine
 10
260.13669
 20
11.9011155
 30
0.0
 11
259.84059
 21
12.1972155
 31
0.0
  0
LINE
  5
20C
330
9C
100
AcDbEntity
  8
AM_BOR
  6
Continuous
 62
   179
100
AcDbLine
 10
259.829682
 20
12.2081235
 30
0.0
 11
259.6431795
 21
12.394626
 31
0.0
  0
LINE
  5
20D
330
9C
100
AcDbEntity
  8
AM_BOR
  6
Continuous
 62
   179
100
AcDbLine
 10
260.08389525
 20
11.72958075
 30
0.0
 11
259.84059
 21
11.972886
 31
0.0
  0
LINE
  5
20E
330
9C
100
AcDbEntity
  8
AM_BOR
  6
Continuous
 62
   179
100
AcDbLine
 10
259.69982625
 20
12.11364975
 30
0.0
 11
259.5815025
 21
12.2319735
 31
0.0
  0
LINE
  5
20F
330
9C
100
AcDbEntity
  8
AM_BOR
  6
Continuous
 62
   179
100
AcDbLine
 10
259.85956575
 20
11.72958075
 30
0.0
 11
259.84059
 21
11.7485565
 31
0.0
  0
LINE
  5
210
330
9C
100
AcDbEntity
  8
AM_BOR
  6
Continuous
 62
   179
100
AcDbLine
 10
261.712986
 20
11.8951275
 30
0.0
 11
260.694132
 21
12.91398075
 31
0.0
  0
LINE
  5
211
330
9C
100
AcDbEntity
  8
AM_BOR
  6
Continuous
 62
   179
100
AcDbLine
 10
260.358765
 20
13.24934775
 30
0.0
 11
260.2129695
 21
13.39514325
 31
0.0
  0
LINE
  5
212
330
9C
100
AcDbEntity
  8
AM_BOR
  6
Continuous
 62
   179
100
AcDbLine
 10
260.13669
 20
13.47142275
 30
0.0
 11
260.0649195
 21
13.54319325
 31
0.0
  0
LINE
  5
213
330
9C
100
AcDbEntity
  8
AM_BOR
  6
Continuous
 62
   179
100
AcDbLine
 10
261.492636
 20
12.33980625
 30
0.0
 11
260.87694
 21
12.95550225
 31
0.0
  0
LINE
  5
214
330
9C
100
AcDbEntity
  8
AM_BOR
  6
Continuous
 62
   179
100
AcDbLine
 10
261.46914
 20
12.58763175
 30
0.0
 11
260.87694
 21
13.17983175
 31
0.0
  0
LINE
  5
215
330
9C
100
AcDbEntity
  8
AM_BOR
  6
Continuous
 62
   179
100
AcDbLine
 10
261.51517125
 20
12.76593075
 30
0.0
 11
261.36712125
 21
12.91398075
 31
0.0
  0
LINE
  5
216
330
9C
100
AcDbEntity
  8
AM_BOR
  6
Continuous
 62
   179
100
AcDbLine
 10
261.2100525
 20
13.0710495
 30
0.0
 11
260.87694
 21
13.404162
 31
0.0
  0
LINE
  5
217
330
9C
100
AcDbEntity
  8
AM_BOR
  6
Continuous
 62
   179
100
AcDbLine
 10
260.7659025
 20
13.5151995
 30
0.0
 11
260.73790875
 21
13.54319325
 31
0.0
  0
LINE
  5
218
330
9C
100
AcDbEntity
  8
AM_BOR
  6
Continuous
 62
   179
100
AcDbLine
 10
261.7282275
 20
12.777204
 30
0.0
 11
261.59145075
 21
12.91398075
 31
0.0
  0
LINE
  5
219
330
9C
100
AcDbEntity
  8
AM_BOR
  6
Continuous
 62
   179
100
AcDbLine
 10
261.25833825
 20
13.24709325
 30
0.0
 11
260.96223825
 21
13.54319325
 31
0.0
  0
LINE
  5
21A
330
9C
100
AcDbEntity
  8
AM_BOR
  6
Continuous
 62
   179
100
AcDbLine
 10
261.48266775
 20
13.24709325
 30
0.0
 11
261.33461775
 21
13.39514325
 31
0.0
  0
LINE
  5
21B
330
9C
100
AcDbEntity
  8
AM_BOR
  6
Continuous
 62
   179
100
AcDbLine
 10
261.2100525
 20
13.5197085
 30
0.0
 11
261.18656775
 21
13.54319325
 31
0.0
  0
LINE
  5
21C
330
9C
100
AcDbEntity
  8
AM_BOR
  6
Continuous
 62
   179
100
AcDbLine
 10
261.6542025
 20
13.299888
 30
0.0
 11
261.55894725
 21
13.39514325
 31
0.0
  0
LINE
  5
21D
330
9C
100
AcDbEntity
  8
AM_BOR
  6
Continuous
 62
   179
100
AcDbLine
 10
260.80967925
 20
13.24709325
 30
0.0
 11
260.51357925
 21
13.54319325
 31
0.0
  0
LINE
  5
21E
330
9C
100
AcDbEntity
  8
AM_BOR
  6
Continuous
 62
   179
100
AcDbLine
 10
260.728242
 20
13.10420025
 30
0.0
 11
260.46885225
 21
13.36359075
 31
0.0
  0
LINE
  5
21F
330
9C
100
AcDbEntity
  8
AM_BOR
  6
Continuous
 62
   179
100
AcDbLine
 10
260.62638525
 20
12.9817275
 30
0.0
 11
260.426547
 21
13.18156575
 31
0.0
  0
LINE
  5
220
330
9C
100
AcDbEntity
  8
AM_BOR
  6
Continuous
 62
   179
100
AcDbLine
 10
262.6165275
 20
12.65489325
 30
0.0
 11
262.35744
 21
12.91398075
 31
0.0
  0
LINE
  5
221
330
9C
100
AcDbEntity
  8
AM_BOR
  6
Continuous
 62
   179
100
AcDbLine
 10
262.0243275
 20
13.24709325
 30
0.0
 11
261.8762775
 21
13.39514325
 31
0.0
  0
LINE
  5
222
330
9C
100
AcDbEntity
  8
AM_BOR
  6
Continuous
 62
   179
100
AcDbLine
 10
263.24574
 20
11.80135125
 30
0.0
 11
263.132448
 21
11.91464325
 31
0.0
  0
LINE
  5
223
330
9C
100
AcDbEntity
  8
AM_BOR
  6
Continuous
 62
   179
100
AcDbLine
 10
262.6165275
 20
12.43056375
 30
0.0
 11
262.1331105
 21
12.91398075
 31
0.0
  0
LINE
  5
224
330
9C
100
AcDbEntity
  8
AM_BOR
  6
Continuous
 62
   179
100
AcDbLine
 10
263.093181
 20
11.72958075
 30
0.0
 11
262.9081185
 21
11.91464325
 31
0.0
  0
LINE
  5
225
330
9C
100
AcDbEntity
  8
AM_BOR
  6
Continuous
 62
   179
100
AcDbLine
 10
262.6165275
 20
12.20623425
 30
0.0
 11
262.283415
 21
12.53934675
 31
0.0
  0
LINE
  5
226
330
9C
100
AcDbEntity
  8
AM_BOR
  6
Continuous
 62
   179
100
AcDbLine
 10
262.0938435
 20
12.72891825
 30
0.0
 11
261.908781
 21
12.91398075
 31
0.0
  0
LINE
  5
227
330
9C
100
AcDbEntity
  8
AM_BOR
  6
Continuous
 62
   179
100
AcDbLine
 10
262.8688515
 20
11.72958075
 30
0.0
 11
262.683789
 21
11.91464325
 31
0.0
  0
LINE
  5
228
330
9C
100
AcDbEntity
  8
AM_BOR
  6
Continuous
 62
   179
100
AcDbLine
 10
262.6165275
 20
11.981904
 30
0.0
 11
262.283415
 21
12.3150165
 31
0.0
  0
LINE
  5
229
330
9C
100
AcDbEntity
  8
AM_BOR
  6
Continuous
 62
   179
100
AcDbLine
 10
261.869514
 20
12.72891825
 30
0.0
 11
261.839265
 21
12.7591665
 31
0.0
  0
LINE
  5
22A
330
9C
100
AcDbEntity
  8
AM_BOR
  6
Continuous
 62
   179
100
AcDbLine
 10
262.64452125
 20
11.72958075
 30
0.0
 11
262.283415
 21
12.090687
 31
0.0
  0
LINE
  5
22B
330
9C
100
AcDbEntity
  8
AM_BOR
  6
Continuous
 62
   179
100
AcDbLine
 10
262.42019175
 20
11.72958075
 30
0.0
 11
262.23512925
 21
11.91464325
 31
0.0
  0
LINE
  5
22C
330
9C
100
AcDbEntity
  8
AM_BOR
  6
Continuous
 62
   179
100
AcDbLine
 10
262.19586225
 20
11.72958075
 30
0.0
 11
262.01079975
 21
11.91464325
 31
0.0
  0
LINE
  5
22D
330
9C
100
AcDbEntity
  8
AM_BOR
  6
Continuous
 62
   179
100
AcDbLine
 10
261.97153275
 20
11.72958075
 30
0.0
 11
261.8762775
 21
11.824836
 31
0.0
  0
LINE
  5
22E
330
9C
100
AcDbEntity
  8
AM_BOR
  6
Continuous
 62
   179
100
AcDbLine
 10
263.7238455
 20
11.7719055
 30
0.0
 11
263.08695075
 21
12.4087995
 31
0.0
  0
LINE
  5
22F
330
9C
100
AcDbEntity
  8
AM_BOR
  6
Continuous
 62
   179
100
AcDbLine
 10
262.766832
 20
12.72891825
 30
0.0
 11
262.5817695
 21
12.91398075
 31
0.0
  0
LINE
  5
230
330
9C
100
AcDbEntity
  8
AM_BOR
  6
Continuous
 62
   179
100
AcDbLine
 10
262.248657
 20
13.24709325
 30
0.0
 11
262.100607
 21
13.39514325
 31
0.0
  0
LINE
  5
231
330
9C
100
AcDbEntity
  8
AM_BOR
  6
Continuous
 62
   179
100
AcDbLine
 10
263.8749525
 20
11.84512725
 30
0.0
 11
263.02639725
 21
12.69368325
 31
0.0
  0
LINE
  5
232
330
9C
100
AcDbEntity
  8
AM_BOR
  6
Continuous
 62
   179
100
AcDbLine
 10
262.9911615
 20
12.72891825
 30
0.0
 11
262.806099
 21
12.91398075
 31
0.0
  0
LINE
  5
233
330
9C
100
AcDbEntity
  8
AM_BOR
  6
Continuous
 62
   179
100
AcDbLine
 10
262.4729865
 20
13.24709325
 30
0.0
 11
262.3249365
 21
13.39514325
 31
0.0
  0
LINE
  5
234
330
9C
100
AcDbEntity
  8
AM_BOR
  6
Continuous
 62
   179
100
AcDbLine
 10
263.428989
 20
12.515421
 30
0.0
 11
263.023665
 21
12.92074425
 31
0.0
  0
LINE
  5
235
330
9C
100
AcDbEntity
  8
AM_BOR
  6
Continuous
 62
   179
100
AcDbLine
 10
262.69731675
 20
13.24709325
 30
0.0
 11
262.54926675
 21
13.39514325
 31
0.0
  0
LINE
  5
236
330
9C
100
AcDbEntity
  8
AM_BOR
  6
Continuous
 62
   179
100
AcDbLine
 10
263.3938095
 20
12.77493
 30
0.0
 11
263.023665
 21
13.1450745
 31
0.0
  0
LINE
  5
237
330
9C
100
AcDbEntity
  8
AM_BOR
  6
Continuous
 62
   179
100
AcDbLine
 10
262.92164625
 20
13.24709325
 30
0.0
 11
262.77359625
 21
13.39514325
 31
0.0
  0
LINE
  5
238
330
9C
100
AcDbEntity
  8
AM_BOR
  6
Continuous
 62
   179
100
AcDbLine
 10
263.39379
 20
12.999279
 30
0.0
 11
262.99792575
 21
13.39514325
 31
0.0
  0
LINE
  5
239
330
9C
100
AcDbEntity
  8
AM_BOR
  6
Continuous
 62
   179
100
AcDbLine
 10
263.39379
 20
13.2236085
 30
0.0
 11
263.07420525
 21
13.54319325
 31
0.0
  0
LINE
  5
23A
330
9C
100
AcDbEntity
  8
AM_BOR
  6
Continuous
 62
   179
100
AcDbLine
 10
263.59463475
 20
13.24709325
 30
0.0
 11
263.44658475
 21
13.39514325
 31
0.0
  0
LINE
  5
23B
330
9C
100
AcDbEntity
  8
AM_BOR
  6
Continuous
 62
   179
100
AcDbLine
 10
263.39379
 20
13.447938
 30
0.0
 11
263.29853475
 21
13.54319325
 31
0.0
  0
LINE
  5
23C
330
9C
100
AcDbEntity
  8
AM_BOR
  6
Continuous
 62
   179
100
AcDbLine
 10
263.81896425
 20
13.24709325
 30
0.0
 11
263.65870725
 21
13.407351
 31
0.0
  0
LINE
  5
23D
330
9C
100
AcDbEntity
  8
AM_BOR
  6
Continuous
 62
   179
100
AcDbLine
 10
263.911965
 20
13.378422
 30
0.0
 11
263.7471945
 21
13.54319325
 31
0.0
  0
LINE
  5
23E
330
9C
100
AcDbEntity
  8
AM_BOR
  6
Continuous
 62
   179
100
AcDbLine
 10
265.38000975
 20
11.7790485
 30
0.0
 11
265.225203
 21
11.93385525
 31
0.0
  0
LINE
  5
23F
330
9C
100
AcDbEntity
  8
AM_BOR
  6
Continuous
 62
   179
100
AcDbLine
 10
264.92775225
 20
12.231306
 30
0.0
 11
264.6892275
 21
12.46983075
 31
0.0
  0
LINE
  5
240
330
9C
100
AcDbEntity
  8
AM_BOR
  6
Continuous
 62
   179
100
AcDbLine
 10
264.48926175
 20
12.6697965
 30
0.0
 11
264.34121175
 21
12.8178465
 31
0.0
  0
LINE
  5
241
330
9C
100
AcDbEntity
  8
AM_BOR
  6
Continuous
 62
   179
100
AcDbLine
 10
264.21281475
 20
12.9462435
 30
0.0
 11
264.060015
 21
13.09904325
 31
0.0
  0
LINE
  5
242
330
9C
100
AcDbEntity
  8
AM_BOR
  6
Continuous
 62
   179
100
AcDbLine
 10
265.205109
 20
11.72961975
 30
0.0
 11
265.0200855
 21
11.91464325
 31
0.0
  0
LINE
  5
243
330
9C
100
AcDbEntity
  8
AM_BOR
  6
Continuous
 62
   179
100
AcDbLine
 10
264.840513
 20
12.09421575
 30
0.0
 11
264.61432575
 21
12.320403
 31
0.0
  0
LINE
  5
244
330
9C
100
AcDbEntity
  8
AM_BOR
  6
Continuous
 62
   179
100
AcDbLine
 10
264.612948
 20
12.32178075
 30
0.0
 11
264.464898
 21
12.46983075
 31
0.0
  0
LINE
  5
245
330
9C
100
AcDbEntity
  8
AM_BOR
  6
Continuous
 62
   179
100
AcDbLine
 10
264.26493225
 20
12.6697965
 30
0.0
 11
264.11688225
 21
12.8178465
 31
0.0
  0
LINE
  5
246
330
9C
100
AcDbEntity
  8
AM_BOR
  6
Continuous
 62
   179
100
AcDbLine
 10
264.9808185
 20
11.72958075
 30
0.0
 11
264.795756
 21
11.91464325
 31
0.0
  0
LINE
  5
247
330
9C
100
AcDbEntity
  8
AM_BOR
  6
Continuous
 62
   179
100
AcDbLine
 10
264.75327375
 20
11.95712475
 30
0.0
 11
264.5270865
 21
12.18331275
 31
0.0
  0
LINE
  5
248
330
9C
100
AcDbEntity
  8
AM_BOR
  6
Continuous
 62
   179
100
AcDbLine
 10
264.3886185
 20
12.32178075
 30
0.0
 11
264.2405685
 21
12.46983075
 31
0.0
  0
LINE
  5
249
330
9C
100
AcDbEntity
  8
AM_BOR
  6
Continuous
 62
   179
100
AcDbLine
 10
264.756489
 20
11.72958075
 30
0.0
 11
264.43984725
 21
12.0462225
 31
0.0
  0
LINE
  5
24A
330
9C
100
AcDbEntity
  8
AM_BOR
  6
Continuous
 62
   179
100
AcDbLine
 10
264.164289
 20
12.32178075
 30
0.0
 11
264.060015
 21
12.426054
 31
0.0
  0
LINE
  5
24B
330
9C
100
AcDbEntity
  8
AM_BOR
  6
Continuous
 62
   179
100
AcDbLine
 10
264.53215875
 20
11.72958075
 30
0.0
 11
264.34709625
 21
11.91464325
 31
0.0
  0
LINE
  5
24C
330
9C
100
AcDbEntity
  8
AM_BOR
  6
Continuous
 62
   179
100
AcDbLine
 10
264.30782925
 20
11.72958075
 30
0.0
 11
264.12276675
 21
11.91464325
 31
0.0
  0
LINE
  5
24D
330
9C
100
AcDbEntity
  8
AM_BOR
  6
Continuous
 62
   179
100
AcDbLine
 10
264.08349975
 20
11.72958075
 30
0.0
 11
264.060015
 21
11.7530655
 31
0.0
  0
LINE
  5
24E
330
9C
100
AcDbEntity
  8
AM_BOR
  6
Continuous
 62
   179
100
AcDbLine
 10
265.494702
 20
11.88868575
 30
0.0
 11
265.37055225
 21
12.0128355
 31
0.0
  0
LINE
  5
24F
330
9C
100
AcDbEntity
  8
AM_BOR
  6
Continuous
 62
   179
100
AcDbLine
 10
265.061607
 20
12.32178075
 30
0.0
 11
264.913557
 21
12.46983075
 31
0.0
  0
LINE
  5
250
330
9C
100
AcDbEntity
  8
AM_BOR
  6
Continuous
 62
   179
100
AcDbLine
 10
264.71359125
 20
12.6697965
 30
0.0
 11
264.56554125
 21
12.8178465
 31
0.0
  0
LINE
  5
251
330
9C
100
AcDbEntity
  8
AM_BOR
  6
Continuous
 62
   179
100
AcDbLine
 10
264.39358725
 20
12.9898005
 30
0.0
 11
264.23365875
 21
13.149729
 31
0.0
  0
LINE
  5
252
330
9C
100
AcDbEntity
  8
AM_BOR
  6
Continuous
 62
   179
100
AcDbLine
 10
265.83235125
 20
11.775366
 30
0.0
 11
265.4339865
 21
12.17373075
 31
0.0
  0
LINE
  5
253
330
9C
100
AcDbEntity
  8
AM_BOR
  6
Continuous
 62
   179
100
AcDbLine
 10
265.2859365
 20
12.32178075
 30
0.0
 11
265.1378865
 21
12.46983075
 31
0.0
  0
LINE
  5
254
330
9C
100
AcDbEntity
  8
AM_BOR
  6
Continuous
 62
   179
100
AcDbLine
 10
264.93792075
 20
12.6697965
 30
0.0
 11
264.78987075
 21
12.8178465
 31
0.0
  0
LINE
  5
255
330
9C
100
AcDbEntity
  8
AM_BOR
  6
Continuous
 62
   179
100
AcDbLine
 10
264.569739
 20
13.037979
 30
0.0
 11
264.39640425
 21
13.21131375
 31
0.0
  0
LINE
  5
256
330
9C
100
AcDbEntity
  8
AM_BOR
  6
Continuous
 62
   179
100
AcDbLine
 10
266.0957025
 20
11.73634425
 30
0.0
 11
265.65831675
 21
12.17373075
 31
0.0
  0
LINE
  5
257
330
9C
100
AcDbEntity
  8
AM_BOR
  6
Continuous
 62
   179
100
AcDbLine
 10
265.51026675
 20
12.32178075
 30
0.0
 11
265.36221675
 21
12.46983075
 31
0.0
  0
LINE
  5
258
330
9C
100
AcDbEntity
  8
AM_BOR
  6
Continuous
 62
   179
100
AcDbLine
 10
265.162251
 20
12.6697965
 30
0.0
 11
265.014201
 21
12.8178465
 31
0.0
  0
LINE
  5
259
330
9C
100
AcDbEntity
  8
AM_BOR
  6
Continuous
 62
   179
100
AcDbLine
 10
264.741501
 20
13.09054575
 30
0.0
 11
264.54932775
 21
13.282719
 31
0.0
  0
LINE
  5
25A
330
9C
100
AcDbEntity
  8
AM_BOR
  6
Continuous
 62
   179
100
AcDbLine
 10
265.73459625
 20
12.32178075
 30
0.0
 11
265.58654625
 21
12.46983075
 31
0.0
  0
LINE
  5
25B
330
9C
100
AcDbEntity
  8
AM_BOR
  6
Continuous
 62
   179
100
AcDbLine
 10
265.3865805
 20
12.6697965
 30
0.0
 11
265.2385305
 21
12.8178465
 31
0.0
  0
LINE
  5
25C
330
9C
100
AcDbEntity
  8
AM_BOR
  6
Continuous
 62
   179
100
AcDbLine
 10
264.90907875
 20
13.14729825
 30
0.0
 11
264.6931965
 21
13.36317975
 31
0.0
  0
LINE
  5
25D
330
9C
100
AcDbEntity
  8
AM_BOR
  6
Continuous
 62
   179
100
AcDbLine
 10
265.95892575
 20
12.32178075
 30
0.0
 11
265.81087575
 21
12.46983075
 31
0.0
  0
LINE
  5
25E
330
9C
100
AcDbEntity
  8
AM_BOR
  6
Continuous
 62
   179
100
AcDbLine
 10
265.61091
 20
12.6697965
 30
0.0
 11
265.46286
 21
12.8178465
 31
0.0
  0
LINE
  5
25F
330
9C
100
AcDbEntity
  8
AM_BOR
  6
Continuous
 62
   179
100
AcDbLine
 10
265.07264925
 20
13.2080565
 30
0.0
 11
264.82855125
 21
13.45215525
 31
0.0
  0
LINE
  5
260
330
9C
100
AcDbEntity
  8
AM_BOR
  6
Continuous
 62
   179
100
AcDbLine
 10
266.0957025
 20
12.4093335
 30
0.0
 11
266.03520525
 21
12.46983075
 31
0.0
  0
LINE
  5
261
330
9C
100
AcDbEntity
  8
AM_BOR
  6
Continuous
 62
   179
100
AcDbLine
 10
265.8352395
 20
12.6697965
 30
0.0
 11
265.6871895
 21
12.8178465
 31
0.0
  0
LINE
  5
262
330
9C
100
AcDbEntity
  8
AM_BOR
  6
Continuous
 62
   179
100
AcDbLine
 10
265.41462
 20
13.090416
 30
0.0
 11
264.96184275
 21
13.54319325
 31
0.0
  0
LINE
  5
263
330
9C
100
AcDbEntity
  8
AM_BOR
  6
Continuous
 62
   179
100
AcDbLine
 10
266.059569
 20
12.6697965
 30
0.0
 11
265.911519
 21
12.8178465
 31
0.0
  0
LINE
  5
264
330
9C
100
AcDbEntity
  8
AM_BOR
  6
Continuous
 62
   179
100
AcDbLine
 10
265.73163375
 20
12.9977325
 30
0.0
 11
265.18617225
 21
13.54319325
 31
0.0
  0
LINE
  5
265
330
9C
100
AcDbEntity
  8
AM_BOR
  6
Continuous
 62
   179
100
AcDbLine
 10
266.02537875
 20
12.92831625
 30
0.0
 11
265.72955475
 21
13.22414025
 31
0.0
  0
LINE
  5
266
330
9C
100
AcDbEntity
  8
AM_BOR
  6
Continuous
 62
   179
100
AcDbLine
 10
266.0957025
 20
13.082322
 30
0.0
 11
266.0732655
 21
13.104759
 31
0.0
  0
LINE
  5
267
330
9C
100
AcDbEntity
  8
AM_BOR
  6
Continuous
 62
   179
100
AcDbLine
 10
268.2424275
 20
11.76659325
 30
0.0
 11
268.0943775
 21
11.91464325
 31
0.0
  0
LINE
  5
268
330
9C
100
AcDbEntity
  8
AM_BOR
  6
Continuous
 62
   179
100
AcDbLine
 10
267.83529
 20
12.17373075
 30
0.0
 11
267.465165
 21
12.54385575
 31
0.0
  0
LINE
  5
269
330
9C
100
AcDbEntity
  8
AM_BOR
  6
Continuous
 62
   179
100
AcDbLine
 10
267.0370395
 20
12.97198125
 30
0.0
 11
266.4658275
 21
13.54319325
 31
0.0
  0
LINE
  5
26A
330
9C
100
AcDbEntity
  8
AM_BOR
  6
Continuous
 62
   179
100
AcDbLine
 10
268.0551105
 20
11.72958075
 30
0.0
 11
267.870048
 21
11.91464325
 31
0.0
  0
LINE
  5
26B
330
9C
100
AcDbEntity
  8
AM_BOR
  6
Continuous
 62
   179
100
AcDbLine
 10
267.83529
 20
11.94940125
 30
0.0
 11
267.465165
 21
12.31952625
 31
0.0
  0
LINE
  5
26C
330
9C
100
AcDbEntity
  8
AM_BOR
  6
Continuous
 62
   179
100
AcDbLine
 10
266.9526795
 20
12.83201175
 30
0.0
 11
266.7224385
 21
13.06225275
 31
0.0
  0
LINE
  5
26D
330
9C
100
AcDbEntity
  8
AM_BOR
  6
Continuous
 62
   179
100
AcDbLine
 10
266.537598
 20
13.24709325
 30
0.0
 11
266.389548
 21
13.39514325
 31
0.0
  0
LINE
  5
26E
330
9C
100
AcDbEntity
  8
AM_BOR
  6
Continuous
 62
   179
100
AcDbLine
 10
267.830781
 20
11.72958075
 30
0.0
 11
267.465165
 21
12.09519675
 31
0.0
  0
LINE
  5
26F
330
9C
100
AcDbEntity
  8
AM_BOR
  6
Continuous
 62
   179
100
AcDbLine
 10
267.09504
 20
12.46532175
 30
0.0
 11
266.6544945
 21
12.9058665
 31
0.0
  0
LINE
  5
270
330
9C
100
AcDbEntity
  8
AM_BOR
  6
Continuous
 62
   179
100
AcDbLine
 10
266.3132685
 20
13.24709325
 30
0.0
 11
266.2437525
 21
13.31660925
 31
0.0
  0
LINE
  5
271
330
9C
100
AcDbEntity
  8
AM_BOR
  6
Continuous
 62
   179
100
AcDbLine
 10
267.6064515
 20
11.72958075
 30
0.0
 11
267.421389
 21
11.91464325
 31
0.0
  0
LINE
  5
272
330
9C
100
AcDbEntity
  8
AM_BOR
  6
Continuous
 62
   179
100
AcDbLine
 10
266.99232525
 20
12.343707
 30
0.0
 11
266.564067
 21
12.77196525
 31
0.0
  0
LINE
  5
273
330
9C
100
AcDbEntity
  8
AM_BOR
  6
Continuous
 62
   179
100
AcDbLine
 10
267.38212125
 20
11.72958075
 30
0.0
 11
267.19705875
 21
11.91464325
 31
0.0
  0
LINE
  5
274
330
9C
100
AcDbEntity
  8
AM_BOR
  6
Continuous
 62
   179
100
AcDbLine
 10
266.7619275
 20
12.3497745
 30
0.0
 11
266.45346075
 21
12.65824125
 31
0.0
  0
LINE
  5
275
330
9C
100
AcDbEntity
  8
AM_BOR
  6
Continuous
 62
   179
100
AcDbLine
 10
267.15779175
 20
11.72958075
 30
0.0
 11
266.97272925
 21
11.91464325
 31
0.0
  0
LINE
  5
276
330
9C
100
AcDbEntity
  8
AM_BOR
  6
Continuous
 62
   179
100
AcDbLine
 10
266.7619275
 20
12.125445
 30
0.0
 11
266.3228295
 21
12.564543
 31
0.0
  0
LINE
  5
277
330
9C
100
AcDbEntity
  8
AM_BOR
  6
Continuous
 62
   179
100
AcDbLine
 10
266.93346225
 20
11.72958075
 30
0.0
 11
266.9099775
 21
11.7530655
 31
0.0
  0
LINE
  5
278
330
9C
100
AcDbEntity
  8
AM_BOR
  6
Continuous
 62
   179
100
AcDbLine
 10
266.7619275
 20
11.9011155
 30
0.0
 11
266.4658275
 21
12.1972155
 31
0.0
  0
LINE
  5
279
330
9C
100
AcDbEntity
  8
AM_BOR
  6
Continuous
 62
   179
100
AcDbLine
 10
266.31132975
 20
12.35171325
 30
0.0
 11
266.20674
 21
12.456303
 31
0.0
  0
LINE
  5
27A
330
9C
100
AcDbEntity
  8
AM_BOR
  6
Continuous
 62
   179
100
AcDbLine
 10
266.70913275
 20
11.72958075
 30
0.0
 11
266.4658275
 21
11.972886
 31
0.0
  0
LINE
  5
27B
330
9C
100
AcDbEntity
  8
AM_BOR
  6
Continuous
 62
   179
100
AcDbLine
 10
266.48480325
 20
11.72958075
 30
0.0
 11
266.4658275
 21
11.7485565
 31
0.0
  0
LINE
  5
27C
330
9C
100
AcDbEntity
  8
AM_BOR
  6
Continuous
 62
   179
100
AcDbLine
 10
267.83529
 20
12.39806025
 30
0.0
 11
267.465165
 21
12.76818525
 31
0.0
  0
LINE
  5
27D
330
9C
100
AcDbEntity
  8
AM_BOR
  6
Continuous
 62
   179
100
AcDbLine
 10
267.10510125
 20
13.12824975
 30
0.0
 11
266.838207
 21
13.39514325
 31
0.0
  0
LINE
  5
27E
330
9C
100
AcDbEntity
  8
AM_BOR
  6
Continuous
 62
   179
100
AcDbLine
 10
266.7619275
 20
13.47142275
 30
0.0
 11
266.690157
 21
13.54319325
 31
0.0
  0
LINE
  5
27F
330
9C
100
AcDbEntity
  8
AM_BOR
  6
Continuous
 62
   179
100
AcDbLine
 10
267.83529
 20
12.62238975
 30
0.0
 11
267.465165
 21
12.99251475
 31
0.0
  0
LINE
  5
280
330
9C
100
AcDbEntity
  8
AM_BOR
  6
Continuous
 62
   179
100
AcDbLine
 10
267.153987
 20
13.3036935
 30
0.0
 11
267.0625365
 21
13.39514325
 31
0.0
  0
LINE
  5
281
330
9C
100
AcDbEntity
  8
AM_BOR
  6
Continuous
 62
   179
100
AcDbLine
 10
267.83529
 20
12.84671925
 30
0.0
 11
267.465165
 21
13.21684425
 31
0.0
  0
LINE
  5
282
330
9C
100
AcDbEntity
  8
AM_BOR
  6
Continuous
 62
   179
100
AcDbLine
 10
267.43491675
 20
13.24709325
 30
0.0
 11
267.28686675
 21
13.39514325
 31
0.0
  0
LINE
  5
283
330
9C
100
AcDbEntity
  8
AM_BOR
  6
Continuous
 62
   179
100
AcDbLine
 10
267.83529
 20
13.0710495
 30
0.0
 11
267.465165
 21
13.4411745
 31
0.0
  0
LINE
  5
284
330
9C
100
AcDbEntity
  8
AM_BOR
  6
Continuous
 62
   179
100
AcDbLine
 10
267.88357575
 20
13.24709325
 30
0.0
 11
267.58747575
 21
13.54319325
 31
0.0
  0
LINE
  5
285
330
9C
100
AcDbEntity
  8
AM_BOR
  6
Continuous
 62
   179
100
AcDbLine
 10
268.10790525
 20
13.24709325
 30
0.0
 11
267.95985525
 21
13.39514325
 31
0.0
  0
LINE
  5
286
330
9C
100
AcDbEntity
  8
AM_BOR
  6
Continuous
 62
   179
100
AcDbLine
 10
267.83529
 20
13.5197085
 30
0.0
 11
267.81180525
 21
13.54319325
 31
0.0
  0
LINE
  5
287
330
9C
100
AcDbEntity
  8
AM_BOR
  6
Continuous
 62
   179
100
AcDbLine
 10
268.205415
 20
13.373913
 30
0.0
 11
268.18418475
 21
13.39514325
 31
0.0
  0
LINE
  5
288
330
9C
100
AcDbEntity
  8
AM_BOR
  6
Continuous
 62
   179
100
AcDbLine
 10
244.1843025
 20
11.54451825
 30
0.0
 11
243.7401525
 21
11.98866825
 31
0.0
  0
LINE
  5
289
330
9C
100
AcDbEntity
  8
AM_BOR
  6
Continuous
 62
   179
100
AcDbLine
 10
243.2219775
 20
12.50684325
 30
0.0
 11
242.5557525
 21
13.17306825
 31
0.0
  0
LINE
  5
28A
330
9C
100
AcDbEntity
  8
AM_BOR
  6
Continuous
 62
   179
100
AcDbLine
 10
243.7356435
 20
11.76884775
 30
0.0
 11
243.515823
 21
11.98866825
 31
0.0
  0
LINE
  5
28B
330
9C
100
AcDbEntity
  8
AM_BOR
  6
Continuous
 62
   179
100
AcDbLine
 10
243.1479525
 20
12.35653875
 30
0.0
 11
242.4061995
 21
13.09829175
 31
0.0
  0
LINE
  5
28C
330
9C
100
AcDbEntity
  8
AM_BOR
  6
Continuous
 62
   179
100
AcDbLine
 10
243.1479525
 20
12.13220925
 30
0.0
 11
242.2566465
 21
13.02351525
 31
0.0
  0
LINE
  5
28D
330
9C
100
AcDbEntity
  8
AM_BOR
  6
Continuous
 62
   179
100
AcDbLine
 10
242.83832475
 20
12.21750675
 30
0.0
 11
242.1070935
 21
12.94873875
 31
0.0
  0
LINE
  5
28E
330
9C
100
AcDbEntity
  8
AM_BOR
  6
Continuous
 62
   179
100
AcDbLine
 10
242.38966575
 20
12.441837
 30
0.0
 11
241.9575405
 21
12.87396225
 31
0.0
  0
LINE
  5
28F
330
9C
100
AcDbEntity
  8
AM_BOR
  6
Continuous
 62
   179
100
AcDbLine
 10
241.941006
 20
12.6661665
 30
0.0
 11
241.80798675
 21
12.79918575
 31
0.0
  0
LINE
  5
290
330
9C
100
AcDbEntity
  8
AM_BOR
  6
Continuous
 62
   179
100
AcDbLine
 10
244.3338555
 20
11.61929475
 30
0.0
 11
243.7401525
 21
12.21299775
 31
0.0
  0
LINE
  5
291
330
9C
100
AcDbEntity
  8
AM_BOR
  6
Continuous
 62
   179
100
AcDbLine
 10
243.446307
 20
12.50684325
 30
0.0
 11
242.7053055
 21
13.24784475
 31
0.0
  0
LINE
  5
292
330
9C
100
AcDbEntity
  8
AM_BOR
  6
Continuous
 62
   179
100
AcDbLine
 10
244.4834085
 20
11.69407125
 30
0.0
 11
243.7401525
 21
12.43732725
 31
0.0
  0
LINE
  5
293
330
9C
100
AcDbEntity
  8
AM_BOR
  6
Continuous
 62
   179
100
AcDbLine
 10
243.481065
 20
12.69641475
 30
0.0
 11
243.1524615
 21
13.02501825
 31
0.0
  0
LINE
  5
294
330
9C
100
AcDbEntity
  8
AM_BOR
  6
Continuous
 62
   179
100
AcDbLine
 10
243.1479525
 20
13.02952725
 30
0.0
 11
242.8548585
 21
13.32262125
 31
0.0
  0
LINE
  5
295
330
9C
100
AcDbEntity
  8
AM_BOR
  6
Continuous
 62
   179
100
AcDbLine
 10
244.6329615
 20
11.76884775
 30
0.0
 11
243.78392925
 21
12.61788075
 31
0.0
  0
LINE
  5
296
330
9C
100
AcDbEntity
  8
AM_BOR
  6
Continuous
 62
   179
100
AcDbLine
 10
243.481065
 20
12.92074425
 30
0.0
 11
243.37679175
 21
13.02501825
 31
0.0
  0
LINE
  5
297
330
9C
100
AcDbEntity
  8
AM_BOR
  6
Continuous
 62
   179
100
AcDbLine
 10
243.1479525
 20
13.25385675
 30
0.0
 11
243.0044115
 21
13.39739775
 31
0.0
  0
LINE
  5
298
330
9C
100
AcDbEntity
  8
AM_BOR
  6
Continuous
 62
   179
100
AcDbLine
 10
244.7825145
 20
11.84362425
 30
0.0
 11
244.63747125
 21
11.98866825
 31
0.0
  0
LINE
  5
299
330
9C
100
AcDbEntity
  8
AM_BOR
  6
Continuous
 62
   179
100
AcDbLine
 10
244.6284525
 20
11.997687
 30
0.0
 11
244.00825875
 21
12.61788075
 31
0.0
  0
LINE
  5
29A
330
9C
100
AcDbEntity
  8
AM_BOR
  6
Continuous
 62
   179
100
AcDbLine
 10
244.93206825
 20
11.91840075
 30
0.0
 11
244.86180075
 21
11.98866825
 31
0.0
  0
LINE
  5
29B
330
9C
100
AcDbEntity
  8
AM_BOR
  6
Continuous
 62
   179
100
AcDbLine
 10
244.6284525
 20
12.2220165
 30
0.0
 11
244.23258825
 21
12.61788075
 31
0.0
  0
LINE
  5
29C
330
9C
100
AcDbEntity
  8
AM_BOR
  6
Continuous
 62
   179
100
AcDbLine
 10
243.93648825
 20
12.91398075
 30
0.0
 11
243.7401525
 21
13.1103165
 31
0.0
  0
LINE
  5
29D
330
9C
100
AcDbEntity
  8
AM_BOR
  6
Continuous
 62
   179
100
AcDbLine
 10
243.30727575
 20
13.54319325
 30
0.0
 11
243.30351825
 21
13.54695075
 31
0.0
  0
LINE
  5
29E
330
9C
100
AcDbEntity
  8
AM_BOR
  6
Continuous
 62
   179
100
AcDbLine
 10
244.6284525
 20
12.446346
 30
0.0
 11
244.45691775
 21
12.61788075
 31
0.0
  0
LINE
  5
29F
330
9C
100
AcDbEntity
  8
AM_BOR
  6
Continuous
 62
   179
100
AcDbLine
 10
244.16081775
 20
12.91398075
 30
0.0
 11
243.7401525
 21
13.334646
 31
0.0
  0
LINE
  5
2A0
330
9C
100
AcDbEntity
  8
AM_BOR
  6
Continuous
 62
   179
100
AcDbLine
 10
243.53160525
 20
13.54319325
 30
0.0
 11
243.45307125
 21
13.62172725
 31
0.0
  0
LINE
  5
2A1
330
9C
100
AcDbEntity
  8
AM_BOR
  6
Continuous
 62
   179
100
AcDbLine
 10
245.23117425
 20
12.06795375
 30
0.0
 11
245.2206525
 21
12.0784755
 31
0.0
  0
LINE
  5
2A2
330
9C
100
AcDbEntity
  8
AM_BOR
  6
Continuous
 62
   179
100
AcDbLine
 10
244.38514725
 20
12.91398075
 30
0.0
 11
243.60262425
 21
13.69650375
 31
0.0
  0
LINE
  5
2A3
330
9C
100
AcDbEntity
  8
AM_BOR
  6
Continuous
 62
   179
100
AcDbLine
 10
245.38072725
 20
12.14273025
 30
0.0
 11
245.2206525
 21
12.302805
 31
0.0
  0
LINE
  5
2A4
330
9C
100
AcDbEntity
  8
AM_BOR
  6
Continuous
 62
   179
100
AcDbLine
 10
245.01661425
 20
12.50684325
 30
0.0
 11
244.88754
 21
12.6359175
 31
0.0
  0
LINE
  5
2A5
330
9C
100
AcDbEntity
  8
AM_BOR
  6
Continuous
 62
   179
100
AcDbLine
 10
244.60947675
 20
12.91398075
 30
0.0
 11
243.75217725
 21
13.77128025
 31
0.0
  0
LINE
  5
2A6
330
9C
100
AcDbEntity
  8
AM_BOR
  6
Continuous
 62
   179
100
AcDbLine
 10
245.53028025
 20
12.21750675
 30
0.0
 11
244.88754
 21
12.860247
 31
0.0
  0
LINE
  5
2A7
330
9C
100
AcDbEntity
  8
AM_BOR
  6
Continuous
 62
   179
100
AcDbLine
 10
244.6284525
 20
13.1193345
 30
0.0
 11
243.90173025
 21
13.84605675
 31
0.0
  0
LINE
  5
2A8
330
9C
100
AcDbEntity
  8
AM_BOR
  6
Continuous
 62
   179
100
AcDbLine
 10
245.67983325
 20
12.292284
 30
0.0
 11
244.947099
 21
13.02501825
 31
0.0
  0
LINE
  5
2A9
330
9C
100
AcDbEntity
  8
AM_BOR
  6
Continuous
 62
   179
100
AcDbLine
 10
244.6284525
 20
13.34366475
 30
0.0
 11
244.05128325
 21
13.920834
 31
0.0
  0
LINE
  5
2AA
330
9C
100
AcDbEntity
  8
AM_BOR
  6
Continuous
 62
   179
100
AcDbLine
 10
245.82938625
 20
12.3670605
 30
0.0
 11
245.1714285
 21
13.02501825
 31
0.0
  0
LINE
  5
2AB
330
9C
100
AcDbEntity
  8
AM_BOR
  6
Continuous
 62
   179
100
AcDbLine
 10
244.6532535
 20
13.54319325
 30
0.0
 11
244.2339045
 21
13.96254225
 31
0.0
  0
LINE
  5
2AC
330
9C
100
AcDbEntity
  8
AM_BOR
  6
Continuous
 62
   179
100
AcDbLine
 10
245.97893925
 20
12.441837
 30
0.0
 11
245.2206525
 21
13.20012375
 31
0.0
  0
LINE
  5
2AD
330
9C
100
AcDbEntity
  8
AM_BOR
  6
Continuous
 62
   179
100
AcDbLine
 10
244.877583
 20
13.54319325
 30
0.0
 11
244.6825635
 21
13.73821275
 31
0.0
  0
LINE
  5
2AE
330
9C
100
AcDbEntity
  8
AM_BOR
  6
Continuous
 62
   179
100
AcDbLine
 10
246.12849225
 20
12.5166135
 30
0.0
 11
245.2206525
 21
13.42445325
 31
0.0
  0
LINE
  5
2AF
330
9C
100
AcDbEntity
  8
AM_BOR
  6
Continuous
 62
   179
100
AcDbLine
 10
246.278046
 20
12.59139
 30
0.0
 11
245.57988225
 21
13.28955375
 31
0.0
  0
LINE
  5
2B0
330
9C
100
AcDbEntity
  8
AM_BOR
  6
Continuous
 62
   179
100
AcDbLine
 10
246.427599
 20
12.6661665
 30
0.0
 11
246.02854125
 21
13.0652235
 31
0.0
  0
LINE
  5
2B1
330
9C
100
AcDbEntity
  8
AM_BOR
  6
Continuous
 62
   179
100
AcDbLine
 10
246.577152
 20
12.740943
 30
0.0
 11
246.47720025
 21
12.840894
 31
0.0
  0
LINE
  5
2B2
330
9C
100
AcDbEntity
  8
AM_BOR
  6
Continuous
 62
   179
100
AcDbLine
 10
249.241992
 20
11.96467875
 30
0.0
 11
248.57028375
 21
12.636387
 31
0.0
  0
LINE
  5
2B3
330
9C
100
AcDbEntity
  8
AM_BOR
  6
Continuous
 62
   179
100
AcDbLine
 10
248.0780175
 20
13.12865325
 30
0.0
 11
247.5154275
 21
13.69124325
 31
0.0
  0
LINE
  5
2B4
330
9C
100
AcDbEntity
  8
AM_BOR
  6
Continuous
 62
   179
100
AcDbLine
 10
249.22122075
 20
11.7611205
 30
0.0
 11
248.5495125
 21
12.43282875
 31
0.0
  0
LINE
  5
2B5
330
9C
100
AcDbEntity
  8
AM_BOR
  6
Continuous
 62
   179
100
AcDbLine
 10
248.00867925
 20
12.973662
 30
0.0
 11
247.44608925
 21
13.536252
 31
0.0
  0
LINE
  5
2B6
330
9C
100
AcDbEntity
  8
AM_BOR
  6
Continuous
 62
   179
100
AcDbLine
 10
249.028431
 20
11.72958075
 30
0.0
 11
248.52874125
 21
12.2292705
 31
0.0
  0
LINE
  5
2B7
330
9C
100
AcDbEntity
  8
AM_BOR
  6
Continuous
 62
   179
100
AcDbLine
 10
247.939341
 20
12.81867075
 30
0.0
 11
247.376751
 21
13.38126075
 31
0.0
  0
LINE
  5
2B8
330
9C
100
AcDbEntity
  8
AM_BOR
  6
Continuous
 62
   179
100
AcDbLine
 10
248.8041015
 20
11.72958075
 30
0.0
 11
248.50797
 21
12.02571225
 31
0.0
  0
LINE
  5
2B9
330
9C
100
AcDbEntity
  8
AM_BOR
  6
Continuous
 62
   179
100
AcDbLine
 10
247.87000275
 20
12.66367875
 30
0.0
 11
247.30741275
 21
13.22626875
 31
0.0
  0
LINE
  5
2BA
330
9C
100
AcDbEntity
  8
AM_BOR
  6
Continuous
 62
   179
100
AcDbLine
 10
248.57977125
 20
11.72958075
 30
0.0
 11
248.48719875
 21
11.82215325
 31
0.0
  0
LINE
  5
2BB
330
9C
100
AcDbEntity
  8
AM_BOR
  6
Continuous
 62
   179
100
AcDbLine
 10
247.8006645
 20
12.5086875
 30
0.0
 11
247.2380745
 21
13.0712775
 31
0.0
  0
LINE
  5
2BC
330
9C
100
AcDbEntity
  8
AM_BOR
  6
Continuous
 62
   179
100
AcDbLine
 10
247.73132625
 20
12.35369625
 30
0.0
 11
247.16873625
 21
12.91628625
 31
0.0
  0
LINE
  5
2BD
330
9C
100
AcDbEntity
  8
AM_BOR
  6
Continuous
 62
   179
100
AcDbLine
 10
247.6607235
 20
12.1999695
 30
0.0
 11
247.099398
 21
12.761295
 31
0.0
  0
LINE
  5
2BE
330
9C
100
AcDbEntity
  8
AM_BOR
  6
Continuous
 62
   179
100
AcDbLine
 10
247.5725175
 20
12.063846
 30
0.0
 11
247.03005975
 21
12.60630375
 31
0.0
  0
LINE
  5
2BF
330
9C
100
AcDbEntity
  8
AM_BOR
  6
Continuous
 62
   179
100
AcDbLine
 10
247.4634195
 20
11.9486145
 30
0.0
 11
246.9607215
 21
12.4513125
 31
0.0
  0
LINE
  5
2C0
330
9C
100
AcDbEntity
  8
AM_BOR
  6
Continuous
 62
   179
100
AcDbLine
 10
247.3337475
 20
11.853957
 30
0.0
 11
246.88341675
 21
12.30428775
 31
0.0
  0
LINE
  5
2C1
330
9C
100
AcDbEntity
  8
AM_BOR
  6
Continuous
 62
   179
100
AcDbLine
 10
247.1815815
 20
11.78179275
 30
0.0
 11
246.7759455
 21
12.18742875
 31
0.0
  0
LINE
  5
2C2
330
9C
100
AcDbEntity
  8
AM_BOR
  6
Continuous
 62
   179
100
AcDbLine
 10
247.00148475
 20
11.73756
 30
0.0
 11
246.63749475
 21
12.10155
 31
0.0
  0
LINE
  5
2C3
330
9C
100
AcDbEntity
  8
AM_BOR
  6
Continuous
 62
   179
100
AcDbLine
 10
246.7851345
 20
11.72958075
 30
0.0
 11
246.500073
 21
12.01464225
 31
0.0
  0
LINE
  5
2C4
330
9C
100
AcDbEntity
  8
AM_BOR
  6
Continuous
 62
   179
100
AcDbLine
 10
246.560805
 20
11.72958075
 30
0.0
 11
246.44399025
 21
11.84639475
 31
0.0
  0
LINE
  5
2C5
330
9C
100
AcDbEntity
  8
AM_BOR
  6
Continuous
 62
   179
100
AcDbLine
 10
249.26276325
 20
12.168237
 30
0.0
 11
248.591055
 21
12.83994525
 31
0.0
  0
LINE
  5
2C6
330
9C
100
AcDbEntity
  8
AM_BOR
  6
Continuous
 62
   179
100
AcDbLine
 10
248.14735575
 20
13.2836445
 30
0.0
 11
247.739757
 21
13.69124325
 31
0.0
  0
LINE
  5
2C7
330
9C
100
AcDbEntity
  8
AM_BOR
  6
Continuous
 62
   179
100
AcDbLine
 10
249.925749
 20
11.72958075
 30
0.0
 11
249.80135475
 21
11.853975
 31
0.0
  0
LINE
  5
2C8
330
9C
100
AcDbEntity
  8
AM_BOR
  6
Continuous
 62
   179
100
AcDbLine
 10
249.2835345
 20
12.37179525
 30
0.0
 11
248.61182625
 21
13.0435035
 31
0.0
  0
LINE
  5
2C9
330
9C
100
AcDbEntity
  8
AM_BOR
  6
Continuous
 62
   179
100
AcDbLine
 10
248.216694
 20
13.43863575
 30
0.0
 11
247.9640865
 21
13.69124325
 31
0.0
  0
LINE
  5
2CA
330
9C
100
AcDbEntity
  8
AM_BOR
  6
Continuous
 62
   179
100
AcDbLine
 10
250.15007925
 20
11.72958075
 30
0.0
 11
249.84276975
 21
12.03689025
 31
0.0
  0
LINE
  5
2CB
330
9C
100
AcDbEntity
  8
AM_BOR
  6
Continuous
 62
   179
100
AcDbLine
 10
249.30430575
 20
12.5753535
 30
0.0
 11
248.6325975
 21
13.24706175
 31
0.0
  0
LINE
  5
2CC
330
9C
100
AcDbEntity
  8
AM_BOR
  6
Continuous
 62
   179
100
AcDbLine
 10
248.28603225
 20
13.593627
 30
0.0
 11
248.18841675
 21
13.69124325
 31
0.0
  0
LINE
  5
2CD
330
9C
100
AcDbEntity
  8
AM_BOR
  6
Continuous
 62
   179
100
AcDbLine
 10
250.37440875
 20
11.72958075
 30
0.0
 11
249.884184
 21
12.21980475
 31
0.0
  0
LINE
  5
2CE
330
9C
100
AcDbEntity
  8
AM_BOR
  6
Continuous
 62
   179
100
AcDbLine
 10
249.325077
 20
12.77891175
 30
0.0
 11
248.65336875
 21
13.45062075
 31
0.0
  0
LINE
  5
2CF
330
9C
100
AcDbEntity
  8
AM_BOR
  6
Continuous
 62
   179
100
AcDbLine
 10
250.58954625
 20
11.73877275
 30
0.0
 11
249.925599
 21
12.40272
 31
0.0
  0
LINE
  5
2D0
330
9C
100
AcDbEntity
  8
AM_BOR
  6
Continuous
 62
   179
100
AcDbLine
 10
249.34584825
 20
12.98247075
 30
0.0
 11
248.78512575
 21
13.54319325
 31
0.0
  0
LINE
  5
2D1
330
9C
100
AcDbEntity
  8
AM_BOR
  6
Continuous
 62
   179
100
AcDbLine
 10
250.63096125
 20
11.92168725
 30
0.0
 11
249.96701325
 21
12.58563525
 31
0.0
  0
LINE
  5
2D2
330
9C
100
AcDbEntity
  8
AM_BOR
  6
Continuous
 62
   179
100
AcDbLine
 10
249.3666195
 20
13.186029
 30
0.0
 11
249.00945525
 21
13.54319325
 31
0.0
  0
LINE
  5
2D3
330
9C
100
AcDbEntity
  8
AM_BOR
  6
Continuous
 62
   179
100
AcDbLine
 10
250.6723755
 20
12.1046025
 30
0.0
 11
250.00842825
 21
12.76854975
 31
0.0
  0
LINE
  5
2D4
330
9C
100
AcDbEntity
  8
AM_BOR
  6
Continuous
 62
   179
100
AcDbLine
 10
249.64092225
 20
13.13605575
 30
0.0
 11
249.62852175
 21
13.14845625
 31
0.0
  0
LINE
  5
2D5
330
9C
100
AcDbEntity
  8
AM_BOR
  6
Continuous
 62
   179
100
AcDbLine
 10
249.38739075
 20
13.38958725
 30
0.0
 11
249.23378475
 21
13.54319325
 31
0.0
  0
LINE
  5
2D6
330
9C
100
AcDbEntity
  8
AM_BOR
  6
Continuous
 62
   179
100
AcDbLine
 10
250.7137905
 20
12.28751775
 30
0.0
 11
250.04984325
 21
12.951465
 31
0.0
  0
LINE
  5
2D7
330
9C
100
AcDbEntity
  8
AM_BOR
  6
Continuous
 62
   179
100
AcDbLine
 10
249.86525175
 20
13.13605575
 30
0.0
 11
249.67659225
 21
13.32471525
 31
0.0
  0
LINE
  5
2D8
330
9C
100
AcDbEntity
  8
AM_BOR
  6
Continuous
 62
   179
100
AcDbLine
 10
251.0889195
 20
12.13671825
 30
0.0
 11
250.95942525
 21
12.26621175
 31
0.0
  0
LINE
  5
2D9
330
9C
100
AcDbEntity
  8
AM_BOR
  6
Continuous
 62
   179
100
AcDbLine
 10
250.75520475
 20
12.47043225
 30
0.0
 11
250.0912575
 21
13.1343795
 31
0.0
  0
LINE
  5
2DA
330
9C
100
AcDbEntity
  8
AM_BOR
  6
Continuous
 62
   179
100
AcDbLine
 10
250.089582
 20
13.13605575
 30
0.0
 11
249.7246635
 21
13.50097425
 31
0.0
  0
LINE
  5
2DB
330
9C
100
AcDbEntity
  8
AM_BOR
  6
Continuous
 62
   179
100
AcDbLine
 10
251.313249
 20
12.13671825
 30
0.0
 11
251.011194
 21
12.43877325
 31
0.0
  0
LINE
  5
2DC
330
9C
100
AcDbEntity
  8
AM_BOR
  6
Continuous
 62
   179
100
AcDbLine
 10
250.79661975
 20
12.6533475
 30
0.0
 11
249.906774
 21
13.54319325
 31
0.0
  0
LINE
  5
2DD
330
9C
100
AcDbEntity
  8
AM_BOR
  6
Continuous
 62
   179
100
AcDbLine
 10
251.53557675
 20
12.13872
 30
0.0
 11
251.1674535
 21
12.50684325
 31
0.0
  0
LINE
  5
2DE
330
9C
100
AcDbEntity
  8
AM_BOR
  6
Continuous
 62
   179
100
AcDbLine
 10
250.83803475
 20
12.836262
 30
0.0
 11
250.1311035
 21
13.54319325
 31
0.0
  0
LINE
  5
2DF
330
9C
100
AcDbEntity
  8
AM_BOR
  6
Continuous
 62
   179
100
AcDbLine
 10
251.72254575
 20
12.1760805
 30
0.0
 11
251.376639
 21
12.52198725
 31
0.0
  0
LINE
  5
2E0
330
9C
100
AcDbEntity
  8
AM_BOR
  6
Continuous
 62
   179
100
AcDbLine
 10
250.879449
 20
13.01917725
 30
0.0
 11
250.21550175
 21
13.6831245
 31
0.0
  0
LINE
  5
2E1
330
9C
100
AcDbEntity
  8
AM_BOR
  6
Continuous
 62
   179
100
AcDbLine
 10
251.87599125
 20
12.2469645
 30
0.0
 11
251.5055595
 21
12.61739625
 31
0.0
  0
LINE
  5
2E2
330
9C
100
AcDbEntity
  8
AM_BOR
  6
Continuous
 62
   179
100
AcDbLine
 10
250.9869
 20
13.13605575
 30
0.0
 11
250.4317125
 21
13.69124325
 31
0.0
  0
LINE
  5
2E3
330
9C
100
AcDbEntity
  8
AM_BOR
  6
Continuous
 62
   179
100
AcDbLine
 10
252.44207025
 20
11.90521575
 30
0.0
 11
252.34928175
 21
11.9980035
 31
0.0
  0
LINE
  5
2E4
330
9C
100
AcDbEntity
  8
AM_BOR
  6
Continuous
 62
   179
100
AcDbLine
 10
252.0036435
 20
12.34364175
 30
0.0
 11
251.5727115
 21
12.77457375
 31
0.0
  0
LINE
  5
2E5
330
9C
100
AcDbEntity
  8
AM_BOR
  6
Continuous
 62
   179
100
AcDbLine
 10
251.2112295
 20
13.13605575
 30
0.0
 11
250.656042
 21
13.69124325
 31
0.0
  0
LINE
  5
2E6
330
9C
100
AcDbEntity
  8
AM_BOR
  6
Continuous
 62
   179
100
AcDbLine
 10
252.68642925
 20
11.88518625
 30
0.0
 11
252.39650925
 21
12.17510625
 31
0.0
  0
LINE
  5
2E7
330
9C
100
AcDbEntity
  8
AM_BOR
  6
Continuous
 62
   179
100
AcDbLine
 10
252.10775625
 20
12.46385925
 30
0.0
 11
251.63039625
 21
12.9412185
 31
0.0
  0
LINE
  5
2E8
330
9C
100
AcDbEntity
  8
AM_BOR
  6
Continuous
 62
   179
100
AcDbLine
 10
251.43555975
 20
13.13605575
 30
0.0
 11
251.02842225
 21
13.54319325
 31
0.0
  0
LINE
  5
2E9
330
9C
100
AcDbEntity
  8
AM_BOR
  6
Continuous
 62
   179
100
AcDbLine
 10
251.00369325
 20
13.56792225
 30
0.0
 11
250.88037225
 21
13.69124325
 31
0.0
  0
LINE
  5
2EA
330
9C
100
AcDbEntity
  8
AM_BOR
  6
Continuous
 62
   179
100
AcDbLine
 10
252.93078825
 20
11.86515675
 30
0.0
 11
252.44373675
 21
12.35220825
 31
0.0
  0
LINE
  5
2EB
330
9C
100
AcDbEntity
  8
AM_BOR
  6
Continuous
 62
   179
100
AcDbLine
 10
252.1871925
 20
12.6087525
 30
0.0
 11
251.688081
 21
13.10786325
 31
0.0
  0
LINE
  5
2EC
330
9C
100
AcDbEntity
  8
AM_BOR
  6
Continuous
 62
   179
100
AcDbLine
 10
251.65988925
 20
13.13605575
 30
0.0
 11
251.25275175
 21
13.54319325
 31
0.0
  0
LINE
  5
2ED
330
9C
100
AcDbEntity
  8
AM_BOR
  6
Continuous
 62
   179
100
AcDbLine
 10
253.17514725
 20
11.84512725
 30
0.0
 11
252.5571705
 21
12.463104
 31
0.0
  0
LINE
  5
2EE
330
9C
100
AcDbEntity
  8
AM_BOR
  6
Continuous
 62
   179
100
AcDbLine
 10
252.24596325
 20
12.77431125
 30
0.0
 11
251.47708125
 21
13.54319325
 31
0.0
  0
LINE
  5
2EF
330
9C
100
AcDbEntity
  8
AM_BOR
  6
Continuous
 62
   179
100
AcDbLine
 10
253.41950625
 20
11.82509775
 30
0.0
 11
252.8015295
 21
12.4430745
 31
0.0
  0
LINE
  5
2F0
330
9C
100
AcDbEntity
  8
AM_BOR
  6
Continuous
 62
   179
100
AcDbLine
 10
252.303648
 20
12.940956
 30
0.0
 11
251.70141075
 21
13.54319325
 31
0.0
  0
LINE
  5
2F1
330
9C
100
AcDbEntity
  8
AM_BOR
  6
Continuous
 62
   179
100
AcDbLine
 10
253.66386525
 20
11.80506825
 30
0.0
 11
253.0458885
 21
12.423045
 31
0.0
  0
LINE
  5
2F2
330
9C
100
AcDbEntity
  8
AM_BOR
  6
Continuous
 62
   179
100
AcDbLine
 10
252.74714475
 20
12.72178875
 30
0.0
 11
252.6769755
 21
12.791958
 31
0.0
  0
LINE
  5
2F3
330
9C
100
AcDbEntity
  8
AM_BOR
  6
Continuous
 62
   179
100
AcDbLine
 10
252.36133275
 20
13.10760075
 30
0.0
 11
251.92574025
 21
13.54319325
 31
0.0
  0
LINE
  5
2F4
330
9C
100
AcDbEntity
  8
AM_BOR
  6
Continuous
 62
   179
100
AcDbLine
 10
253.90822425
 20
11.78503875
 30
0.0
 11
253.2902475
 21
12.4030155
 31
0.0
  0
LINE
  5
2F5
330
9C
100
AcDbEntity
  8
AM_BOR
  6
Continuous
 62
   179
100
AcDbLine
 10
252.99150375
 20
12.70175925
 30
0.0
 11
252.724203
 21
12.96906
 31
0.0
  0
LINE
  5
2F6
330
9C
100
AcDbEntity
  8
AM_BOR
  6
Continuous
 62
   179
100
AcDbLine
 10
252.4190175
 20
13.2742455
 30
0.0
 11
252.15006975
 21
13.54319325
 31
0.0
  0
LINE
  5
2F7
330
9C
100
AcDbEntity
  8
AM_BOR
  6
Continuous
 62
   179
100
AcDbLine
 10
254.15258325
 20
11.76500925
 30
0.0
 11
253.5346065
 21
12.382986
 31
0.0
  0
LINE
  5
2F8
330
9C
100
AcDbEntity
  8
AM_BOR
  6
Continuous
 62
   179
100
AcDbLine
 10
253.23586275
 20
12.68172975
 30
0.0
 11
252.822777
 21
13.0948155
 31
0.0
  0
LINE
  5
2F9
330
9C
100
AcDbEntity
  8
AM_BOR
  6
Continuous
 62
   179
100
AcDbLine
 10
252.47670225
 20
13.44089025
 30
0.0
 11
252.3744
 21
13.54319325
 31
0.0
  0
LINE
  5
2FA
330
9C
100
AcDbEntity
  8
AM_BOR
  6
Continuous
 62
   179
100
AcDbLine
 10
254.39694225
 20
11.7449805
 30
0.0
 11
253.7789655
 21
12.3629565
 31
0.0
  0
LINE
  5
2FB
330
9C
100
AcDbEntity
  8
AM_BOR
  6
Continuous
 62
   179
100
AcDbLine
 10
253.48022175
 20
12.66170025
 30
0.0
 11
253.067136
 21
13.07478675
 31
0.0
  0
LINE
  5
2FC
330
9C
100
AcDbEntity
  8
AM_BOR
  6
Continuous
 62
   179
100
AcDbLine
 10
252.82853775
 20
13.313385
 30
0.0
 11
252.75242475
 21
13.389498
 31
0.0
  0
LINE
  5
2FD
330
9C
100
AcDbEntity
  8
AM_BOR
  6
Continuous
 62
   179
100
AcDbLine
 10
254.595732
 20
11.77052025
 30
0.0
 11
254.02332525
 21
12.342927
 31
0.0
  0
LINE
  5
2FE
330
9C
100
AcDbEntity
  8
AM_BOR
  6
Continuous
 62
   179
100
AcDbLine
 10
253.7245815
 20
12.64167075
 30
0.0
 11
253.311495
 21
13.05475725
 31
0.0
  0
LINE
  5
2FF
330
9C
100
AcDbEntity
  8
AM_BOR
  6
Continuous
 62
   179
100
AcDbLine
 10
253.07289675
 20
13.2933555
 30
0.0
 11
252.79965225
 21
13.5666
 31
0.0
  0
LINE
  5
300
330
9C
100
AcDbEntity
  8
AM_BOR
  6
Continuous
 62
   179
100
AcDbLine
 10
254.6429595
 20
11.94762225
 30
0.0
 11
254.26768425
 21
12.3228975
 31
0.0
  0
LINE
  5
301
330
9C
100
AcDbEntity
  8
AM_BOR
  6
Continuous
 62
   179
100
AcDbLine
 10
253.9689405
 20
12.62164125
 30
0.0
 11
253.555854
 21
13.03472775
 31
0.0
  0
LINE
  5
302
330
9C
100
AcDbEntity
  8
AM_BOR
  6
Continuous
 62
   179
100
AcDbLine
 10
253.31725575
 20
13.273326
 30
0.0
 11
252.8671575
 21
13.72342425
 31
0.0
  0
LINE
  5
303
330
9C
100
AcDbEntity
  8
AM_BOR
  6
Continuous
 62
   179
100
AcDbLine
 10
254.690187
 20
12.124725
 30
0.0
 11
254.51204325
 21
12.30286875
 31
0.0
  0
LINE
  5
304
330
9C
100
AcDbEntity
  8
AM_BOR
  6
Continuous
 62
   179
100
AcDbLine
 10
254.2132995
 20
12.6016125
 30
0.0
 11
253.800213
 21
13.01469825
 31
0.0
  0
LINE
  5
305
330
9C
100
AcDbEntity
  8
AM_BOR
  6
Continuous
 62
   179
100
AcDbLine
 10
253.56161475
 20
13.2532965
 30
0.0
 11
253.1115165
 21
13.70339475
 31
0.0
  0
LINE
  5
306
330
9C
100
AcDbEntity
  8
AM_BOR
  6
Continuous
 62
   179
100
AcDbLine
 10
254.4576585
 20
12.581583
 30
0.0
 11
254.044572
 21
12.99466875
 31
0.0
  0
LINE
  5
307
330
9C
100
AcDbEntity
  8
AM_BOR
  6
Continuous
 62
   179
100
AcDbLine
 10
253.80597375
 20
13.233267
 30
0.0
 11
253.3558755
 21
13.68336525
 31
0.0
  0
LINE
  5
308
330
9C
100
AcDbEntity
  8
AM_BOR
  6
Continuous
 62
   179
100
AcDbLine
 10
254.6346435
 20
12.6289275
 30
0.0
 11
254.28893175
 21
12.97463925
 31
0.0
  0
LINE
  5
309
330
9C
100
AcDbEntity
  8
AM_BOR
  6
Continuous
 62
   179
100
AcDbLine
 10
254.05033275
 20
13.2132375
 30
0.0
 11
253.6002345
 21
13.66333575
 31
0.0
  0
LINE
  5
30A
330
9C
100
AcDbEntity
  8
AM_BOR
  6
Continuous
 62
   179
100
AcDbLine
 10
254.68187025
 20
12.8060295
 30
0.0
 11
254.53329075
 21
12.95460975
 31
0.0
  0
LINE
  5
30B
330
9C
100
AcDbEntity
  8
AM_BOR
  6
Continuous
 62
   179
100
AcDbLine
 10
254.29469175
 20
13.193208
 30
0.0
 11
253.8445935
 21
13.643307
 31
0.0
  0
LINE
  5
30C
330
9C
100
AcDbEntity
  8
AM_BOR
  6
Continuous
 62
   179
100
AcDbLine
 10
254.53905075
 20
13.1731785
 30
0.0
 11
254.0889525
 21
13.6232775
 31
0.0
  0
LINE
  5
30D
330
9C
100
AcDbEntity
  8
AM_BOR
  6
Continuous
 62
   179
100
AcDbLine
 10
254.7834105
 20
13.153149
 30
0.0
 11
254.3333115
 21
13.603248
 31
0.0
  0
LINE
  5
30E
330
9C
100
AcDbEntity
  8
AM_BOR
  6
Continuous
 62
   179
100
AcDbLine
 10
254.8819935
 20
13.27889625
 30
0.0
 11
254.5776705
 21
13.5832185
 31
0.0
  0
LINE
  5
30F
330
9C
100
AcDbEntity
  8
AM_BOR
  6
Continuous
 62
   179
100
AcDbLine
 10
254.92922025
 20
13.45599825
 30
0.0
 11
254.8220295
 21
13.563189
 31
0.0
  0
ENDBLK
  5
9E
330
9C
100
AcDbEntity
  8
0
100
AcDbBlockEnd
  0
BLOCK
  5
311
330
310
100
AcDbEntity
  8
0
100
AcDbBlockBegin
  2
ﾌﾞﾛｯｸ10
 70
     2
 10
0.0
 20
0.0
 30
0.0
  3
ﾌﾞﾛｯｸ10
  1

  0
LINE
  5
313
330
310
100
AcDbEntity
  8
SLD-0
370
    18
100
AcDbLine
 10
0.1368770774
 20
0.0
 30
0.0
 11
350.0568770774
 21
0.0
 31
0.0
  0
LINE
  5
314
330
310
100
AcDbEntity
  8
SLD-0
  6
Continuous
 62
   179
370
    18
100
AcDbLine
 10
0.1368770774
 20
29.80881
 30
0.0
 11
350.0568770774
 21
29.80881
 31
0.0
  0
LINE
  5
315
330
310
100
AcDbEntity
  8
SLD-0
  6
Continuous
 62
   179
370
    18
100
AcDbLine
 10
350.0568770774
 20
54.47817
 30
0.0
 11
111.5863970774
 21
54.47817
 31
0.0
  0
LINE
  5
316
330
310
100
AcDbEntity
  8
SLD-0
  6
Continuous
 62
   179
370
    18
100
AcDbLine
 10
113.4365990774
 20
56.906757684
 30
0.0
 11
117.7537370774
 21
64.384262316
 31
0.0
  0
LINE
  5
317
330
310
100
AcDbEntity
  8
SLD-0
  6
Continuous
 62
   179
370
    18
100
AcDbLine
 10
117.7537370774
 20
64.384262316
 30
0.0
 11
122.0708750774
 21
56.906757684
 31
0.0
  0
LINE
  5
318
330
310
100
AcDbEntity
  8
SLD-0
  6
Continuous
 62
   179
370
    18
100
AcDbLine
 10
122.0708750774
 20
56.906757684
 30
0.0
 11
113.4365990774
 21
56.906757684
 31
0.0
  0
LINE
  5
319
330
310
100
AcDbEntity
  8
SLD-0
  6
Continuous
 62
   179
370
    18
100
AcDbLine
 10
111.5863970774
 20
60.64551
 30
0.0
 11
0.1368770774
 21
60.64551
 31
0.0
  0
LINE
  5
31A
330
310
100
AcDbEntity
  8
SLD-0
  6
Continuous
 62
   179
370
    18
100
AcDbLine
 10
0.1368770774
 20
17.47413
 30
0.0
 11
99.2517170774
 21
17.47413
 31
0.0
  0
LINE
  5
31B
330
310
100
AcDbEntity
  8
SLD-0
  6
Continuous
 62
   179
370
    18
100
AcDbLine
 10
99.2517170774
 20
29.80881
 30
0.0
 11
99.2517170774
 21
0.0
 31
0.0
  0
LINE
  5
31C
330
310
100
AcDbEntity
  8
SLD-0
  6
Continuous
 62
   179
370
    18
100
AcDbLine
 10
111.5863970774
 20
29.80881
 30
0.0
 11
111.5863970774
 21
91.48221
 31
0.0
  0
LINE
  5
31D
330
310
100
AcDbEntity
  8
SLD-0
  6
Continuous
 62
   179
370
    18
100
AcDbLine
 10
117.7537370774
 20
89.053622316
 30
0.0
 11
113.4365990774
 21
81.576117684
 31
0.0
  0
LINE
  5
31E
330
310
100
AcDbEntity
  8
SLD-0
  6
Continuous
 62
   179
370
    18
100
AcDbLine
 10
113.4365990774
 20
81.576117684
 30
0.0
 11
122.0708750774
 21
81.576117684
 31
0.0
  0
LINE
  5
31F
330
310
100
AcDbEntity
  8
SLD-0
  6
Continuous
 62
   179
370
    18
100
AcDbLine
 10
122.0708750774
 20
81.576117684
 30
0.0
 11
117.7537370774
 21
89.053622316
 31
0.0
  0
LINE
  5
320
330
310
100
AcDbEntity
  8
SLD-0
  6
Continuous
 62
   179
370
    18
100
AcDbLine
 10
123.9210770774
 20
91.48221
 30
0.0
 11
123.9210770774
 21
54.47817
 31
0.0
  0
LINE
  5
321
330
310
100
AcDbEntity
  8
SLD-0
  6
Continuous
 62
   179
370
    18
100
AcDbLine
 10
122.0708750774
 20
69.241437684
 30
0.0
 11
113.4365990774
 21
69.241437684
 31
0.0
  0
LINE
  5
322
330
310
100
AcDbEntity
  8
SLD-0
  6
Continuous
 62
   179
370
    18
100
AcDbLine
 10
113.4365990774
 20
69.241437684
 30
0.0
 11
117.7537370774
 21
76.718942316
 31
0.0
  0
LINE
  5
323
330
310
100
AcDbEntity
  8
SLD-0
  6
Continuous
 62
   179
370
    18
100
AcDbLine
 10
117.7537370774
 20
76.718942316
 30
0.0
 11
122.0708750774
 21
69.241437684
 31
0.0
  0
LINE
  5
324
330
310
100
AcDbEntity
  8
SLD-0
  6
Continuous
 62
   179
370
    18
100
AcDbLine
 10
111.5863970774
 20
66.81285
 30
0.0
 11
350.0568770774
 21
66.81285
 31
0.0
  0
LINE
  5
325
330
310
100
AcDbEntity
  8
SLD-0
  6
Continuous
 62
   179
370
    18
100
AcDbLine
 10
350.0568770774
 20
79.14753
 30
0.0
 11
111.5863970774
 21
79.14753
 31
0.0
  0
LINE
  5
326
330
310
100
AcDbEntity
  8
SLD-0
  6
Continuous
 62
   179
370
    18
100
AcDbLine
 10
140.3673170774
 20
54.47817
 30
0.0
 11
140.3673170774
 21
29.80881
 31
0.0
  0
LINE
  5
327
330
310
100
AcDbEntity
  8
SLD-0
  6
Continuous
 62
   179
370
    18
100
AcDbLine
 10
111.5863970774
 20
42.9144075
 30
0.0
 11
222.5985170774
 21
42.9144075
 31
0.0
  0
LINE
  5
328
330
310
100
AcDbEntity
  8
SLD-0
  6
Continuous
 62
   179
370
    18
100
AcDbLine
 10
222.5985170774
 20
54.47817
 30
0.0
 11
222.5985170774
 21
0.0
 31
0.0
  0
LINE
  5
329
330
310
100
AcDbEntity
  8
SLD-0
  6
Continuous
 62
   179
370
    18
100
AcDbLine
 10
245.2120970774
 20
29.80881
 30
0.0
 11
245.2120970774
 21
91.48221
 31
0.0
  0
LINE
  5
32A
330
310
100
AcDbEntity
  8
SLD-0
  6
Continuous
 62
   179
370
    18
100
AcDbLine
 10
239.0447570774
 20
89.053622316
 30
0.0
 11
234.7276190774
 21
81.576117684
 31
0.0
  0
LINE
  5
32B
330
310
100
AcDbEntity
  8
SLD-0
  6
Continuous
 62
   179
370
    18
100
AcDbLine
 10
234.7276190774
 20
81.576117684
 30
0.0
 11
243.3618950774
 21
81.576117684
 31
0.0
  0
LINE
  5
32C
330
310
100
AcDbEntity
  8
SLD-0
  6
Continuous
 62
   179
370
    18
100
AcDbLine
 10
243.3618950774
 20
81.576117684
 30
0.0
 11
239.0447570774
 21
89.053622316
 31
0.0
  0
LINE
  5
32D
330
310
100
AcDbEntity
  8
SLD-0
  6
Continuous
 62
   179
370
    18
100
AcDbLine
 10
232.8774170774
 20
91.48221
 30
0.0
 11
232.8774170774
 21
54.47817
 31
0.0
  0
LINE
  5
32E
330
310
100
AcDbEntity
  8
SLD-0
  6
Continuous
 62
   179
370
    18
100
AcDbLine
 10
239.0447570774
 20
76.718942316
 30
0.0
 11
234.7276190774
 21
69.241437684
 31
0.0
  0
LINE
  5
32F
330
310
100
AcDbEntity
  8
SLD-0
  6
Continuous
 62
   179
370
    18
100
AcDbLine
 10
234.7276190774
 20
69.241437684
 30
0.0
 11
243.3618950774
 21
69.241437684
 31
0.0
  0
LINE
  5
330
330
310
100
AcDbEntity
  8
SLD-0
  6
Continuous
 62
   179
370
    18
100
AcDbLine
 10
243.3618950774
 20
69.241437684
 30
0.0
 11
239.0447570774
 21
76.718942316
 31
0.0
  0
LINE
  5
331
330
310
100
AcDbEntity
  8
SLD-0
  6
Continuous
 62
   179
370
    18
100
AcDbLine
 10
239.0447570774
 20
64.384262316
 30
0.0
 11
234.7276190774
 21
56.906757684
 31
0.0
  0
LINE
  5
332
330
310
100
AcDbEntity
  8
SLD-0
  6
Continuous
 62
   179
370
    18
100
AcDbLine
 10
234.7276190774
 20
56.906757684
 30
0.0
 11
243.3618950774
 21
56.906757684
 31
0.0
  0
LINE
  5
333
330
310
100
AcDbEntity
  8
SLD-0
  6
Continuous
 62
   179
370
    18
100
AcDbLine
 10
243.3618950774
 20
56.906757684
 30
0.0
 11
239.0447570774
 21
64.384262316
 31
0.0
  0
LINE
  5
334
330
310
100
AcDbEntity
  8
SLD-0
  6
Continuous
 62
   179
370
    18
100
AcDbLine
 10
290.4392570774
 20
91.48221
 30
0.0
 11
290.4392570774
 21
54.47817
 31
0.0
  0
LINE
  5
335
330
310
100
AcDbEntity
  8
SLD-0
  6
Continuous
 62
   179
370
    18
100
AcDbLine
 10
169.1482370774
 20
54.47817
 30
0.0
 11
169.1482370774
 21
91.48221
 31
0.0
  0
LINE
  5
336
330
310
100
AcDbEntity
  8
SLD-0
  6
Continuous
 62
   179
370
    18
100
AcDbLine
 10
74.5823570774
 20
29.80881
 30
0.0
 11
74.5823570774
 21
0.0
 31
0.0
  0
LINE
  5
337
330
310
100
AcDbEntity
  8
SLD-0
  6
Continuous
 62
   179
370
    18
100
AcDbLine
 10
49.9129970774
 20
0.0
 30
0.0
 11
49.9129970774
 21
29.80881
 31
0.0
  0
LINE
  5
338
330
310
100
AcDbEntity
  8
SLD-0
  6
Continuous
 62
   179
370
    18
100
AcDbLine
 10
29.3551970774
 20
29.80881
 30
0.0
 11
29.3551970774
 21
91.48221
 31
0.0
  0
LINE
  5
339
330
310
100
AcDbEntity
  8
SLD-0
  6
Continuous
 62
   179
370
    18
100
AcDbLine
 10
25.2436370774
 20
29.80881
 30
0.0
 11
25.2436370774
 21
0.0
 31
0.0
  0
LINE
  5
33A
330
310
100
AcDbEntity
  8
SLD-0
370
    18
100
AcDbLine
 10
350.0568770774
 20
91.48221
 30
0.0
 11
350.0568770774
 21
0.0
 31
0.0
  0
LINE
  5
33B
330
310
100
AcDbEntity
  8
SLD-0
370
    18
100
AcDbLine
 10
350.0568770774
 20
91.48221
 30
0.0
 11
0.1368770774
 21
91.48221
 31
0.0
  0
LINE
  5
33C
330
310
100
AcDbEntity
  8
SLD-0
370
    18
100
AcDbLine
 10
0.1368770774
 20
91.48221
 30
0.0
 11
0.1368770774
 21
0.0
 31
0.0
  0
INSERT
  5
343
330
310
100
AcDbEntity
  8
SLD-0
 62
   179
100
AcDbBlockReference
  2
SW_NOTE_0
 10
227.3265657264
 20
41.7786210171
 30
0.0
  0
INSERT
  5
349
330
310
100
AcDbEntity
  8
SLD-0
 62
   179
100
AcDbBlockReference
  2
SW_NOTE_0_1
 10
174.5609278543
 20
48.5407093917
 30
0.0
  0
INSERT
  5
34F
330
310
100
AcDbEntity
  8
SLD-0
 62
   179
100
AcDbBlockReference
  2
SW_NOTE_0_2
 10
119.3906288163
 20
48.5407093917
 30
0.0
  0
INSERT
  5
355
330
310
100
AcDbEntity
  8
SLD-0
 62
   179
100
AcDbBlockReference
  2
SW_NOTE_0_3
 10
81.6265736693
 20
23.4168285365
 30
0.0
  0
INSERT
  5
35B
330
310
100
AcDbEntity
  8
SLD-0
 62
   179
100
AcDbBlockReference
  2
SW_NOTE_0_4
 10
55.9620712759
 20
23.4168285365
 30
0.0
  0
INSERT
  5
361
330
310
100
AcDbEntity
  8
SLD-0
 62
   179
100
AcDbBlockReference
  2
SW_NOTE_0_5
 10
31.2777599476
 20
23.4168285365
 30
0.0
  0
INSERT
  5
367
330
310
100
AcDbEntity
  8
SLD-0
 62
   179
100
AcDbBlockReference
  2
SW_NOTE_0_6
 10
6.3299263417
 20
23.4168285365
 30
0.0
  0
INSERT
  5
36D
330
310
100
AcDbEntity
  8
SLD-0
 62
   179
100
AcDbBlockReference
  2
SW_NOTE_0_7
 10
5.345177433
 20
44.7425716292
 30
0.0
  0
INSERT
  5
373
330
310
100
AcDbEntity
  8
SLD-0
 62
   179
100
AcDbBlockReference
  2
SW_NOTE_0_8
 10
5.345177433
 20
75.8957421173
 30
0.0
  0
ATTDEF
  5
374
330
310
100
AcDbEntity
  8
SLD-0
 62
   179
100
AcDbText
 10
0.0
 20
0.0
 30
0.0
 40
0.0
  1

100
AcDbAttributeDefinition
  3
尺度
  2
GEN-TITLE-SCA
 70
     0
  0
ATTDEF
  5
375
330
310
100
AcDbEntity
  8
SLD-0
 62
   179
100
AcDbText
 10
0.0
 20
0.0
 30
0.0
 40
0.0
  1

100
AcDbAttributeDefinition
  3
設計
  2
GEN-TITLE-DGND
 70
     0
  0
ATTDEF
  5
376
330
310
100
AcDbEntity
  8
SLD-0
 62
   179
100
AcDbText
 10
0.0
 20
0.0
 30
0.0
 40
0.0
  1

100
AcDbAttributeDefinition
  3
製図
  2
GEN-TITLE-DWGD
 70
     0
  0
ATTDEF
  5
377
330
310
100
AcDbEntity
  8
SLD-0
 62
   179
100
AcDbText
 10
0.0
 20
0.0
 30
0.0
 40
0.0
  1

100
AcDbAttributeDefinition
  3
検図
  2
GEN-TITLE-CHKD
 70
     0
  0
ATTDEF
  5
378
330
310
100
AcDbEntity
  8
SLD-0
 62
   179
100
AcDbText
 10
0.0
 20
0.0
 30
0.0
 40
0.0
  1

100
AcDbAttributeDefinition
  3
承認
  2
GEN-TITLE-APPD
 70
     0
  0
ATTDEF
  5
379
330
310
100
AcDbEntity
  8
SLD-0
 62
   179
100
AcDbText
 10
0.0
 20
0.0
 30
0.0
 40
0.0
  1

100
AcDbAttributeDefinition
  3
コード
  2
GEN-TITLE-NR
 70
     0
  0
ATTDEF
  5
37A
330
310
100
AcDbEntity
  8
SLD-0
 62
   179
100
AcDbText
 10
0.0
 20
0.0
 30
0.0
 40
0.0
  1

100
AcDbAttributeDefinition
  3
日付
  2
GEN-TITLE-DAT
 70
     0
  0
ATTDEF
  5
37B
330
310
100
AcDbEntity
  8
SLD-0
 62
   179
100
AcDbText
 10
0.0
 20
0.0
 30
0.0
 40
0.0
  1

100
AcDbAttributeDefinition
  3
名称
  2
GEN-TITLE-UNIT
 70
     0
  0
ATTDEF
  5
37C
330
310
100
AcDbEntity
  8
SLD-0
 62
   179
100
AcDbText
 10
0.0
 20
0.0
 30
0.0
 40
0.0
  1

100
AcDbAttributeDefinition
  3
型番
  2
GEN-TITLE-DESK1
 70
     0
  0
INSERT
  5
37D
330
310
100
AcDbEntity
  8
0
  6
Continuous
 62
     7
100
AcDbBlockReference
  2
BLKF0004_1
 10
-870.2898954673
 20
-30.6353088738
 30
0.0
 41
4.0378413239
 42
4.0378413239
 43
4.0378413239
  0
ENDBLK
  5
312
330
310
100
AcDbEntity
  8
0
100
AcDbBlockEnd
  0
BLOCK
  5
33E
330
33D
100
AcDbEntity
  8
0
100
AcDbBlockBegin
  2
SW_NOTE_0
 70
     0
 10
0.0
 20
0.0
 30
0.0
  3
SW_NOTE_0
  1

  0
MTEXT
  5
341
330
33D
100
AcDbEntity
  8
SLD-0
 62
     0
100
AcDbMText
 10
5.506640625
 20
4.0927900738
 30
0.0
 40
3.175
 41
0.0
 71
     2
 72
     1
  1
コード
  7
SLDTEXTSTYLE0
 73
     1
 44
1.0
  0
MTEXT
  5
342
330
33D
100
AcDbEntity
  8
SLD-0
 62
     0
100
AcDbMText
 10
5.6635529781
 20
-0.1405432084
 30
0.0
 40
3.175
 41
0.0
 71
     2
 72
     1
  1
Code
  7
SLDTEXTSTYLE0
 73
     1
 44
1.0
  0
ENDBLK
  5
33F
330
33D
100
AcDbEntity
  8
0
100
AcDbBlockEnd
  0
BLOCK
  5
345
330
344
100
AcDbEntity
  8
0
100
AcDbBlockBegin
  2
SW_NOTE_0_1
 70
     0
 10
0.0
 20
0.0
 30
0.0
  3
SW_NOTE_0_1
  1

  0
MTEXT
  5
347
330
344
100
AcDbEntity
  8
SLD-0
 62
     0
100
AcDbMText
 10
5.506640625
 20
4.0927900738
 30
0.0
 40
3.175
 41
0.0
 71
     2
 72
     1
  1
日　付
  7
SLDTEXTSTYLE0
 73
     1
 44
1.0
  0
MTEXT
  5
348
330
344
100
AcDbEntity
  8
SLD-0
 62
     0
100
AcDbMText
 10
5.6734750384
 20
-0.1405432084
 30
0.0
 40
3.175
 41
0.0
 71
     2
 72
     1
  1
Date
  7
SLDTEXTSTYLE0
 73
     1
 44
1.0
  0
ENDBLK
  5
346
330
344
100
AcDbEntity
  8
0
100
AcDbBlockEnd
  0
BLOCK
  5
34B
330
34A
100
AcDbEntity
  8
0
100
AcDbBlockBegin
  2
SW_NOTE_0_2
 70
     0
 10
0.0
 20
0.0
 30
0.0
  3
SW_NOTE_0_2
  1

  0
MTEXT
  5
34D
330
34A
100
AcDbEntity
  8
SLD-0
 62
     0
100
AcDbMText
 10
5.506640625
 20
4.0927900738
 30
0.0
 40
3.175
 41
0.0
 71
     2
 72
     1
  1
尺　度
  7
SLDTEXTSTYLE0
 73
     1
 44
1.0
  0
MTEXT
  5
34E
330
34A
100
AcDbEntity
  8
SLD-0
 62
     0
100
AcDbMText
 10
5.6128414828
 20
-0.1405432084
 30
0.0
 40
3.175
 41
0.0
 71
     2
 72
     1
  1
Scale
  7
SLDTEXTSTYLE0
 73
     1
 44
1.0
  0
ENDBLK
  5
34C
330
34A
100
AcDbEntity
  8
0
100
AcDbBlockEnd
  0
BLOCK
  5
351
330
350
100
AcDbEntity
  8
0
100
AcDbBlockBegin
  2
SW_NOTE_0_3
 70
     0
 10
0.0
 20
0.0
 30
0.0
  3
SW_NOTE_0_3
  1

  0
MTEXT
  5
353
330
350
100
AcDbEntity
  8
SLD-0
 62
     0
100
AcDbMText
 10
5.506640625
 20
4.0927900738
 30
0.0
 40
3.175
 41
0.0
 71
     2
 72
     1
  1
設　計
  7
SLDTEXTSTYLE0
 73
     1
 44
1.0
  0
MTEXT
  5
354
330
350
100
AcDbEntity
  8
SLD-0
 62
     0
100
AcDbMText
 10
5.4096269157
 20
-0.1405432084
 30
0.0
 40
3.175
 41
0.0
 71
     2
 72
     1
  1
Design
  7
SLDTEXTSTYLE0
 73
     1
 44
1.0
  0
ENDBLK
  5
352
330
350
100
AcDbEntity
  8
0
100
AcDbBlockEnd
  0
BLOCK
  5
357
330
356
100
AcDbEntity
  8
0
100
AcDbBlockBegin
  2
SW_NOTE_0_4
 70
     0
 10
0.0
 20
0.0
 30
0.0
  3
SW_NOTE_0_4
  1

  0
MTEXT
  5
359
330
356
100
AcDbEntity
  8
SLD-0
 62
     0
100
AcDbMText
 10
5.506640625
 20
4.0927900738
 30
0.0
 40
3.175
 41
0.0
 71
     2
 72
     1
  1
製　図
  7
SLDTEXTSTYLE0
 73
     1
 44
1.0
  0
MTEXT
  5
35A
330
356
100
AcDbEntity
  8
SLD-0
 62
     0
100
AcDbMText
 10
5.5746241953
 20
-0.1405432084
 30
0.0
 40
3.175
 41
0.0
 71
     2
 72
     1
  1
Draw
  7
SLDTEXTSTYLE0
 73
     1
 44
1.0
  0
ENDBLK
  5
358
330
356
100
AcDbEntity
  8
0
100
AcDbBlockEnd
  0
BLOCK
  5
35D
330
35C
100
AcDbEntity
  8
0
100
AcDbBlockBegin
  2
SW_NOTE_0_5
 70
     0
 10
0.0
 20
0.0
 30
0.0
  3
SW_NOTE_0_5
  1

  0
MTEXT
  5
35F
330
35C
100
AcDbEntity
  8
SLD-0
 62
     0
100
AcDbMText
 10
5.506640625
 20
4.0927900738
 30
0.0
 40
3.175
 41
0.0
 71
     2
 72
     1
  1
検　図
  7
SLDTEXTSTYLE0
 73
     1
 44
1.0
  0
MTEXT
  5
360
330
35C
100
AcDbEntity
  8
SLD-0
 62
     0
100
AcDbMText
 10
5.5062731691
 20
-0.1405432084
 30
0.0
 40
3.175
 41
0.0
 71
     2
 72
     1
  1
Check
  7
SLDTEXTSTYLE0
 73
     1
 44
1.0
  0
ENDBLK
  5
35E
330
35C
100
AcDbEntity
  8
0
100
AcDbBlockEnd
  0
BLOCK
  5
363
330
362
100
AcDbEntity
  8
0
100
AcDbBlockBegin
  2
SW_NOTE_0_6
 70
     0
 10
0.0
 20
0.0
 30
0.0
  3
SW_NOTE_0_6
  1

  0
MTEXT
  5
365
330
362
100
AcDbEntity
  8
SLD-0
 62
     0
100
AcDbMText
 10
5.506640625
 20
4.0927900738
 30
0.0
 40
3.175
 41
0.0
 71
     2
 72
     1
  1
承　認
  7
SLDTEXTSTYLE0
 73
     1
 44
1.0
  0
MTEXT
  5
366
330
362
100
AcDbEntity
  8
SLD-0
 62
     0
100
AcDbMText
 10
5.193182613
 20
-0.1405432084
 30
0.0
 40
3.175
 41
0.0
 71
     2
 72
     1
  1
Approve
  7
SLDTEXTSTYLE0
 73
     1
 44
1.0
  0
ENDBLK
  5
364
330
362
100
AcDbEntity
  8
0
100
AcDbBlockEnd
  0
BLOCK
  5
369
330
368
100
AcDbEntity
  8
0
100
AcDbBlockBegin
  2
SW_NOTE_0_7
 70
     0
 10
0.0
 20
0.0
 30
0.0
  3
SW_NOTE_0_7
  1

  0
MTEXT
  5
36B
330
368
100
AcDbEntity
  8
SLD-0
 62
     0
100
AcDbMText
 10
0.0
 20
7.5178430584
 30
0.0
 40
5.832
 41
0.0
 71
     1
 72
     1
  1
名　称
  7
SLDTEXTSTYLE0
 73
     1
 44
1.0
  0
MTEXT
  5
36C
330
368
100
AcDbEntity
  8
SLD-0
 62
     0
100
AcDbMText
 10
0.0
 20
0.7235631515
 30
0.0
 40
5.832
 41
0.0
 71
     1
 72
     1
  1
Name
  7
SLDTEXTSTYLE0
 73
     1
 44
1.0
  0
ENDBLK
  5
36A
330
368
100
AcDbEntity
  8
0
100
AcDbBlockEnd
  0
BLOCK
  5
36F
330
36E
100
AcDbEntity
  8
0
100
AcDbBlockBegin
  2
SW_NOTE_0_8
 70
     0
 10
0.0
 20
0.0
 30
0.0
  3
SW_NOTE_0_8
  1

  0
MTEXT
  5
371
330
36E
100
AcDbEntity
  8
SLD-0
 62
     0
100
AcDbMText
 10
0.0
 20
7.5178430584
 30
0.0
 40
5.832
 41
0.0
 71
     1
 72
     1
  1
型　番
  7
SLDTEXTSTYLE0
 73
     1
 44
1.0
  0
MTEXT
  5
372
330
36E
100
AcDbEntity
  8
SLD-0
 62
     0
100
AcDbMText
 10
0.0
 20
0.7235631515
 30
0.0
 40
5.832
 41
0.0
 71
     1
 72
     1
  1
Model
  7
SLDTEXTSTYLE0
 73
     1
 44
1.0
  0
ENDBLK
  5
370
330
36E
100
AcDbEntity
  8
0
100
AcDbBlockEnd
  0
BLOCK
  5
393
330
392
100
AcDbEntity
  8
0
100
AcDbBlockBegin
  2
SW_NOTE_0_9
 70
     0
 10
0.0
 20
0.0
 30
0.0
  3
SW_NOTE_0_9
  1

  0
MTEXT
  5
395
330
392
100
AcDbEntity
  8
FORMAT
 62
     0
100
AcDbMText
 10
0.0
 20
13.5352112676
 30
0.0
 40
10.5
 41
0.0
 71
     1
 72
     1
  1
■材質/仕上
  7
SLDTEXTSTYLE0
 73
     1
 44
1.0
  0
MTEXT
  5
396
330
392
100
AcDbEntity
  8
FORMAT
 62
     0
100
AcDbMText
 10
0.0
 20
-2.964788643
 30
0.0
 40
10.5
 41
0.0
 71
     1
 72
     1
  1
　本体/受金具A/受金具Ｂ：スチール製/溶剤焼付塗装仕上（ブラック）
  7
SLDTEXTSTYLE0
 73
     1
 44
1.0
  0
MTEXT
  5
397
330
392
100
AcDbEntity
  8
FORMAT
 62
     0
100
AcDbMText
 10
0.0
 20
-35.9647884642
 30
0.0
 40
10.5
 41
0.0
 71
     1
 72
     1
  1
■質量
  7
SLDTEXTSTYLE0
 73
     1
 44
1.0
  0
MTEXT
  5
398
330
392
100
AcDbEntity
  8
FORMAT
 62
     0
100
AcDbMText
 10
0.0
 20
-52.4647883748
 30
0.0
 40
10.5
 41
0.0
 71
     1
 72
     1
  1
　約0.8kg
  7
SLDTEXTSTYLE0
 73
     1
 44
1.0
  0
MTEXT
  5
399
330
392
100
AcDbEntity
  8
FORMAT
 62
     0
100
AcDbMText
 10
0.0
 20
-85.464788196
 30
0.0
 40
10.5
 41
0.0
 71
     1
 72
     1
  1
■耐荷重
  7
SLDTEXTSTYLE0
 73
     1
 44
1.0
  0
MTEXT
  5
39A
330
392
100
AcDbEntity
  8
FORMAT
 62
     0
100
AcDbMText
 10
0.0
 20
-101.9647881065
 30
0.0
 40
10.5
 41
0.0
 71
     1
 72
     1
  1
　約5kg
  7
SLDTEXTSTYLE0
 73
     1
 44
1.0
  0
ENDBLK
  5
394
330
392
100
AcDbEntity
  8
0
100
AcDbBlockEnd
  0
BLOCK
  5
3EF
330
3EE
100
AcDbEntity
  8
0
100
AcDbBlockBegin
  2
_Oblique
 70
     0
 10
0.0
 20
0.0
 30
0.0
  3
_Oblique
  1

  0
LINE
  5
3F1
330
3EE
100
AcDbEntity
  8
0
  6
ByBlock
 62
     0
370
    -2
100
AcDbLine
 10
-0.5
 20
-0.5
 30
0.0
 11
0.5
 21
0.5
 31
0.0
  0
ENDBLK
  5
3F0
330
3EE
100
AcDbEntity
  8
0
100
AcDbBlockEnd
  0
BLOCK
  5
3F3
330
3F2
100
AcDbEntity
  8
0
100
AcDbBlockBegin
  2
_D
 70
     0
 10
0.0
 20
0.0
 30
0.0
  3
_D
  1

  0
INSERT
  5
3F5
330
3F2
100
AcDbEntity
  8
FORMAT
100
AcDbBlockReference
  2
_Oblique
 10
206.799684757
 20
429.3844754328
 30
24.15
 41
9.906
 42
9.906
 50
180.0
  0
INSERT
  5
3F6
330
3F2
100
AcDbEntity
  8
FORMAT
100
AcDbBlockReference
  2
_Oblique
 10
426.799684757
 20
429.3844754328
 30
24.15
 41
9.906
 42
9.906
 50
0.0
  0
LINE
  5
3F7
330
3F2
100
AcDbEntity
  8
FORMAT
100
AcDbLine
 10
206.799684757
 20
492.3844754328
 30
0.0
 11
206.799684757
 21
426.3844754328
 31
0.0
  0
LINE
  5
3F8
330
3F2
100
AcDbEntity
  8
FORMAT
100
AcDbLine
 10
426.799684757
 20
492.3844754328
 30
0.0
 11
426.799684757
 21
426.3844754328
 31
0.0
  0
LINE
  5
3F9
330
3F2
100
AcDbEntity
  8
FORMAT
100
AcDbLine
 10
206.799684757
 20
429.3844754328
 30
0.0
 11
426.799684757
 21
429.3844754328
 31
0.0
  0
MTEXT
  5
3FA
330
3F2
100
AcDbEntity
  8
FORMAT
100
AcDbMText
 10
308.5451411567
 20
442.9196861766
 30
0.0
 40
10.5
 41
0.0
 71
     1
 72
     1
  1
220
  7
SLDTEXTSTYLE2
 73
     1
 44
1.0
  0
ENDBLK
  5
3F4
330
3F2
100
AcDbEntity
  8
0
100
AcDbBlockEnd
  0
BLOCK
  5
3FE
330
3FD
100
AcDbEntity
  8
0
100
AcDbBlockBegin
  2
_D_1
 70
     0
 10
0.0
 20
0.0
 30
0.0
  3
_D_1
  1

  0
INSERT
  5
400
330
3FD
100
AcDbEntity
  8
FORMAT
100
AcDbBlockReference
  2
_Oblique
 10
140.799684757
 20
577.0344754328
 30
24.15
 41
9.906
 42
9.906
 50
90.0
  0
INSERT
  5
401
330
3FD
100
AcDbEntity
  8
FORMAT
100
AcDbBlockReference
  2
_Oblique
 10
140.799684757
 20
495.3844754328
 30
24.15
 41
9.906
 42
9.906
 50
270.0
  0
LINE
  5
402
330
3FD
100
AcDbEntity
  8
FORMAT
100
AcDbLine
 10
253.799684757
 20
577.0344754328
 30
0.0
 11
137.799684757
 21
577.0344754328
 31
0.0
  0
LINE
  5
403
330
3FD
100
AcDbEntity
  8
FORMAT
100
AcDbLine
 10
205.999684757
 20
495.3844754328
 30
0.0
 11
137.799684757
 21
495.3844754328
 31
0.0
  0
LINE
  5
404
330
3FD
100
AcDbEntity
  8
FORMAT
100
AcDbLine
 10
140.799684757
 20
577.0344754328
 30
0.0
 11
140.799684757
 21
495.3844754328
 31
0.0
  0
MTEXT
  5
405
330
3FD
100
AcDbEntity
  8
FORMAT
100
AcDbMText
 10
127.2644740132
 20
520.2982405952
 30
0.0
 40
10.5
 41
0.0
 71
     1
 72
     1
  1
81.7
  7
SLDTEXTSTYLE2
 11
-7.044195017643634E-15
 21
1.0
 31
0.0
 73
     1
 44
1.0
  0
ENDBLK
  5
3FF
330
3FD
100
AcDbEntity
  8
0
100
AcDbBlockEnd
  0
BLOCK
  5
408
330
407
100
AcDbEntity
  8
0
100
AcDbBlockBegin
  2
_D_2
 70
     0
 10
0.0
 20
0.0
 30
0.0
  3
_D_2
  1

  0
INSERT
  5
40A
330
407
100
AcDbEntity
  8
FORMAT
100
AcDbBlockReference
  2
_Oblique
 10
286.799684757
 20
607.0344754328
 30
24.15
 41
9.906
 42
9.906
 50
180.0
  0
INSERT
  5
40B
330
407
100
AcDbEntity
  8
FORMAT
100
AcDbBlockReference
  2
_Oblique
 10
346.799684757
 20
607.0344754328
 30
24.15
 41
9.906
 42
9.906
 50
0.0
  0
LINE
  5
40C
330
407
100
AcDbEntity
  8
FORMAT
100
AcDbLine
 10
286.799684757
 20
580.0344754328
 30
0.0
 11
286.799684757
 21
610.0344754328
 31
0.0
  0
LINE
  5
40D
330
407
100
AcDbEntity
  8
FORMAT
100
AcDbLine
 10
346.799684757
 20
580.0344754328
 30
0.0
 11
346.799684757
 21
610.0344754328
 31
0.0
  0
LINE
  5
40E
330
407
100
AcDbEntity
  8
FORMAT
100
AcDbLine
 10
286.799684757
 20
607.0344754328
 30
0.0
 11
346.799684757
 21
607.0344754328
 31
0.0
  0
MTEXT
  5
40F
330
407
100
AcDbEntity
  8
FORMAT
100
AcDbMText
 10
308.3444015669
 20
620.5696861766
 30
0.0
 40
10.5
 41
0.0
 71
     1
 72
     1
  1
60
  7
SLDTEXTSTYLE2
 73
     1
 44
1.0
  0
ENDBLK
  5
409
330
407
100
AcDbEntity
  8
0
100
AcDbBlockEnd
  0
BLOCK
  5
412
330
411
100
AcDbEntity
  8
0
100
AcDbBlockBegin
  2
_D_3
 70
     0
 10
0.0
 20
0.0
 30
0.0
  3
_D_3
  1

  0
INSERT
  5
414
330
411
100
AcDbEntity
  8
FORMAT
100
AcDbBlockReference
  2
_Oblique
 10
322.9071479377
 20
575.3844754328
 30
24.15
 41
9.906
 42
9.906
 50
90.0
  0
INSERT
  5
415
330
411
100
AcDbEntity
  8
FORMAT
100
AcDbBlockReference
  2
_Oblique
 10
322.9071479377
 20
555.3844754328
 30
24.15
 41
9.906
 42
9.906
 50
270.0
  0
LINE
  5
416
330
411
100
AcDbEntity
  8
FORMAT
100
AcDbLine
 10
343.799684757
 20
575.3844754328
 30
0.0
 11
319.9071479377
 21
575.3844754328
 31
0.0
  0
LINE
  5
417
330
411
100
AcDbEntity
  8
FORMAT
100
AcDbLine
 10
322.9071479377
 20
575.3844754328
 30
0.0
 11
322.9071479377
 21
555.3844754328
 31
0.0
  0
MTEXT
  5
418
330
411
100
AcDbEntity
  8
FORMAT
100
AcDbMText
 10
309.371937194
 20
560.4819060358
 30
0.0
 40
10.5
 41
0.0
 71
     1
 72
     1
  1
20
  7
SLDTEXTSTYLE2
 11
-7.044195017643634E-15
 21
1.0
 31
0.0
 73
     1
 44
1.0
  0
ENDBLK
  5
413
330
411
100
AcDbEntity
  8
0
100
AcDbBlockEnd
  0
BLOCK
  5
41A
330
419
100
AcDbEntity
  8
0
100
AcDbBlockBegin
  2
SW_CENTERMARKSYMBOL_0
 70
     0
 10
0.0
 20
0.0
 30
0.0
  3
SW_CENTERMARKSYMBOL_0
  1

  0
LINE
  5
41C
330
419
100
AcDbEntity
  8
FORMAT
 62
     0
100
AcDbLine
 10
0.0
 20
0.0
 30
0.0
 11
0.0
 21
2.5
 31
0.0
  0
LINE
  5
41D
330
419
100
AcDbEntity
  8
FORMAT
 62
     0
100
AcDbLine
 10
0.0
 20
0.0
 30
0.0
 11
-2.5
 21
0.0
 31
0.0
  0
LINE
  5
41E
330
419
100
AcDbEntity
  8
FORMAT
 62
     0
100
AcDbLine
 10
0.0
 20
0.0
 30
0.0
 11
0.0
 21
-2.5
 31
0.0
  0
LINE
  5
41F
330
419
100
AcDbEntity
  8
FORMAT
 62
     0
100
AcDbLine
 10
0.0
 20
0.0
 30
0.0
 11
2.5
 21
0.0
 31
0.0
  0
LINE
  5
420
330
419
100
AcDbEntity
  8
FORMAT
 62
     0
100
AcDbLine
 10
0.0
 20
2.5
 30
0.0
 11
0.0
 21
4.5
 31
0.0
  0
LINE
  5
421
330
419
100
AcDbEntity
  8
FORMAT
 62
     0
100
AcDbLine
 10
-2.5
 20
0.0
 30
0.0
 11
-4.5
 21
0.0
 31
0.0
  0
LINE
  5
422
330
419
100
AcDbEntity
  8
FORMAT
 62
     0
100
AcDbLine
 10
0.0
 20
-2.5
 30
0.0
 11
0.0
 21
-4.5
 31
0.0
  0
LINE
  5
423
330
419
100
AcDbEntity
  8
FORMAT
 62
     0
100
AcDbLine
 10
2.5
 20
0.0
 30
0.0
 11
4.5
 21
0.0
 31
0.0
  0
ENDBLK
  5
41B
330
419
100
AcDbEntity
  8
0
100
AcDbBlockEnd
  0
BLOCK
  5
426
330
425
100
AcDbEntity
  8
0
100
AcDbBlockBegin
  2
SW_CENTERMARKSYMBOL_1
 70
     0
 10
0.0
 20
0.0
 30
0.0
  3
SW_CENTERMARKSYMBOL_1
  1

  0
LINE
  5
428
330
425
100
AcDbEntity
  8
FORMAT
 62
     0
100
AcDbLine
 10
0.0
 20
0.0
 30
0.0
 11
0.0
 21
2.5
 31
0.0
  0
LINE
  5
429
330
425
100
AcDbEntity
  8
FORMAT
 62
     0
100
AcDbLine
 10
0.0
 20
0.0
 30
0.0
 11
-2.5
 21
0.0
 31
0.0
  0
LINE
  5
42A
330
425
100
AcDbEntity
  8
FORMAT
 62
     0
100
AcDbLine
 10
0.0
 20
0.0
 30
0.0
 11
0.0
 21
-2.5
 31
0.0
  0
LINE
  5
42B
330
425
100
AcDbEntity
  8
FORMAT
 62
     0
100
AcDbLine
 10
0.0
 20
0.0
 30
0.0
 11
2.5
 21
0.0
 31
0.0
  0
LINE
  5
42C
330
425
100
AcDbEntity
  8
FORMAT
 62
     0
100
AcDbLine
 10
0.0
 20
2.5
 30
0.0
 11
0.0
 21
4.5
 31
0.0
  0
LINE
  5
42D
330
425
100
AcDbEntity
  8
FORMAT
 62
     0
100
AcDbLine
 10
-2.5
 20
0.0
 30
0.0
 11
-4.5
 21
0.0
 31
0.0
  0
LINE
  5
42E
330
425
100
AcDbEntity
  8
FORMAT
 62
     0
100
AcDbLine
 10
0.0
 20
-2.5
 30
0.0
 11
0.0
 21
-4.5
 31
0.0
  0
LINE
  5
42F
330
425
100
AcDbEntity
  8
FORMAT
 62
     0
100
AcDbLine
 10
2.5
 20
0.0
 30
0.0
 11
4.5
 21
0.0
 31
0.0
  0
ENDBLK
  5
427
330
425
100
AcDbEntity
  8
0
100
AcDbBlockEnd
  0
BLOCK
  5
432
330
431
100
AcDbEntity
  8
0
100
AcDbBlockBegin
  2
SW_CENTERMARKSYMBOL_2
 70
     0
 10
0.0
 20
0.0
 30
0.0
  3
SW_CENTERMARKSYMBOL_2
  1

  0
LINE
  5
434
330
431
100
AcDbEntity
  8
FORMAT
 62
     0
100
AcDbLine
 10
0.0
 20
0.0
 30
0.0
 11
0.0
 21
2.5
 31
0.0
  0
LINE
  5
435
330
431
100
AcDbEntity
  8
FORMAT
 62
     0
100
AcDbLine
 10
0.0
 20
0.0
 30
0.0
 11
-2.5
 21
0.0
 31
0.0
  0
LINE
  5
436
330
431
100
AcDbEntity
  8
FORMAT
 62
     0
100
AcDbLine
 10
0.0
 20
0.0
 30
0.0
 11
0.0
 21
-2.5
 31
0.0
  0
LINE
  5
437
330
431
100
AcDbEntity
  8
FORMAT
 62
     0
100
AcDbLine
 10
0.0
 20
0.0
 30
0.0
 11
2.5
 21
0.0
 31
0.0
  0
LINE
  5
438
330
431
100
AcDbEntity
  8
FORMAT
 62
     0
100
AcDbLine
 10
0.0
 20
2.5
 30
0.0
 11
0.0
 21
4.5
 31
0.0
  0
LINE
  5
439
330
431
100
AcDbEntity
  8
FORMAT
 62
     0
100
AcDbLine
 10
-2.5
 20
0.0
 30
0.0
 11
-4.5
 21
0.0
 31
0.0
  0
LINE
  5
43A
330
431
100
AcDbEntity
  8
FORMAT
 62
     0
100
AcDbLine
 10
0.0
 20
-2.5
 30
0.0
 11
0.0
 21
-4.5
 31
0.0
  0
LINE
  5
43B
330
431
100
AcDbEntity
  8
FORMAT
 62
     0
100
AcDbLine
 10
2.5
 20
0.0
 30
0.0
 11
4.5
 21
0.0
 31
0.0
  0
ENDBLK
  5
433
330
431
100
AcDbEntity
  8
0
100
AcDbBlockEnd
  0
BLOCK
  5
43E
330
43D
100
AcDbEntity
  8
0
100
AcDbBlockBegin
  2
SW_CENTERMARKSYMBOL_3
 70
     0
 10
0.0
 20
0.0
 30
0.0
  3
SW_CENTERMARKSYMBOL_3
  1

  0
LINE
  5
440
330
43D
100
AcDbEntity
  8
FORMAT
 62
     0
100
AcDbLine
 10
0.0
 20
0.0
 30
0.0
 11
0.0
 21
2.5
 31
0.0
  0
LINE
  5
441
330
43D
100
AcDbEntity
  8
FORMAT
 62
     0
100
AcDbLine
 10
0.0
 20
0.0
 30
0.0
 11
-2.5
 21
0.0
 31
0.0
  0
LINE
  5
442
330
43D
100
AcDbEntity
  8
FORMAT
 62
     0
100
AcDbLine
 10
0.0
 20
0.0
 30
0.0
 11
0.0
 21
-2.5
 31
0.0
  0
LINE
  5
443
330
43D
100
AcDbEntity
  8
FORMAT
 62
     0
100
AcDbLine
 10
0.0
 20
0.0
 30
0.0
 11
2.5
 21
0.0
 31
0.0
  0
LINE
  5
444
330
43D
100
AcDbEntity
  8
FORMAT
 62
     0
100
AcDbLine
 10
0.0
 20
2.5
 30
0.0
 11
0.0
 21
4.5
 31
0.0
  0
LINE
  5
445
330
43D
100
AcDbEntity
  8
FORMAT
 62
     0
100
AcDbLine
 10
-2.5
 20
0.0
 30
0.0
 11
-4.5
 21
0.0
 31
0.0
  0
LINE
  5
446
330
43D
100
AcDbEntity
  8
FORMAT
 62
     0
100
AcDbLine
 10
0.0
 20
-2.5
 30
0.0
 11
0.0
 21
-4.5
 31
0.0
  0
LINE
  5
447
330
43D
100
AcDbEntity
  8
FORMAT
 62
     0
100
AcDbLine
 10
2.5
 20
0.0
 30
0.0
 11
4.5
 21
0.0
 31
0.0
  0
ENDBLK
  5
43F
330
43D
100
AcDbEntity
  8
0
100
AcDbBlockEnd
  0
BLOCK
  5
44A
330
449
100
AcDbEntity
  8
0
100
AcDbBlockBegin
  2
SW_CENTERMARKSYMBOL_4
 70
     0
 10
0.0
 20
0.0
 30
0.0
  3
SW_CENTERMARKSYMBOL_4
  1

  0
LINE
  5
44C
330
449
100
AcDbEntity
  8
FORMAT
 62
     0
100
AcDbLine
 10
0.0
 20
0.0
 30
0.0
 11
0.0
 21
2.5
 31
0.0
  0
LINE
  5
44D
330
449
100
AcDbEntity
  8
FORMAT
 62
     0
100
AcDbLine
 10
0.0
 20
0.0
 30
0.0
 11
-2.5
 21
0.0
 31
0.0
  0
LINE
  5
44E
330
449
100
AcDbEntity
  8
FORMAT
 62
     0
100
AcDbLine
 10
0.0
 20
0.0
 30
0.0
 11
0.0
 21
-2.5
 31
0.0
  0
LINE
  5
44F
330
449
100
AcDbEntity
  8
FORMAT
 62
     0
100
AcDbLine
 10
0.0
 20
0.0
 30
0.0
 11
2.5
 21
0.0
 31
0.0
  0
LINE
  5
450
330
449
100
AcDbEntity
  8
FORMAT
 62
     0
100
AcDbLine
 10
0.0
 20
2.5
 30
0.0
 11
0.0
 21
4.5
 31
0.0
  0
LINE
  5
451
330
449
100
AcDbEntity
  8
FORMAT
 62
     0
100
AcDbLine
 10
-2.5
 20
0.0
 30
0.0
 11
-4.5
 21
0.0
 31
0.0
  0
LINE
  5
452
330
449
100
AcDbEntity
  8
FORMAT
 62
     0
100
AcDbLine
 10
0.0
 20
-2.5
 30
0.0
 11
0.0
 21
-4.5
 31
0.0
  0
LINE
  5
453
330
449
100
AcDbEntity
  8
FORMAT
 62
     0
100
AcDbLine
 10
2.5
 20
0.0
 30
0.0
 11
4.5
 21
0.0
 31
0.0
  0
ENDBLK
  5
44B
330
449
100
AcDbEntity
  8
0
100
AcDbBlockEnd
  0
BLOCK
  5
456
330
455
100
AcDbEntity
  8
0
100
AcDbBlockBegin
  2
SW_CENTERMARKSYMBOL_5
 70
     0
 10
0.0
 20
0.0
 30
0.0
  3
SW_CENTERMARKSYMBOL_5
  1

  0
LINE
  5
458
330
455
100
AcDbEntity
  8
FORMAT
 62
     0
100
AcDbLine
 10
0.0
 20
0.0
 30
0.0
 11
0.0
 21
2.5
 31
0.0
  0
LINE
  5
459
330
455
100
AcDbEntity
  8
FORMAT
 62
     0
100
AcDbLine
 10
0.0
 20
0.0
 30
0.0
 11
-2.5
 21
0.0
 31
0.0
  0
LINE
  5
45A
330
455
100
AcDbEntity
  8
FORMAT
 62
     0
100
AcDbLine
 10
0.0
 20
0.0
 30
0.0
 11
0.0
 21
-2.5
 31
0.0
  0
LINE
  5
45B
330
455
100
AcDbEntity
  8
FORMAT
 62
     0
100
AcDbLine
 10
0.0
 20
0.0
 30
0.0
 11
2.5
 21
0.0
 31
0.0
  0
LINE
  5
45C
330
455
100
AcDbEntity
  8
FORMAT
 62
     0
100
AcDbLine
 10
0.0
 20
2.5
 30
0.0
 11
0.0
 21
4.5
 31
0.0
  0
LINE
  5
45D
330
455
100
AcDbEntity
  8
FORMAT
 62
     0
100
AcDbLine
 10
-2.5
 20
0.0
 30
0.0
 11
-4.5
 21
0.0
 31
0.0
  0
LINE
  5
45E
330
455
100
AcDbEntity
  8
FORMAT
 62
     0
100
AcDbLine
 10
0.0
 20
-2.5
 30
0.0
 11
0.0
 21
-4.5
 31
0.0
  0
LINE
  5
45F
330
455
100
AcDbEntity
  8
FORMAT
 62
     0
100
AcDbLine
 10
2.5
 20
0.0
 30
0.0
 11
4.5
 21
0.0
 31
0.0
  0
ENDBLK
  5
457
330
455
100
AcDbEntity
  8
0
100
AcDbBlockEnd
  0
BLOCK
  5
462
330
461
100
AcDbEntity
  8
0
100
AcDbBlockBegin
  2
SW_CENTERMARKSYMBOL_6
 70
     0
 10
0.0
 20
0.0
 30
0.0
  3
SW_CENTERMARKSYMBOL_6
  1

  0
LINE
  5
464
330
461
100
AcDbEntity
  8
FORMAT
 62
     0
100
AcDbLine
 10
0.0
 20
0.0
 30
0.0
 11
0.0
 21
2.5
 31
0.0
  0
LINE
  5
465
330
461
100
AcDbEntity
  8
FORMAT
 62
     0
100
AcDbLine
 10
0.0
 20
0.0
 30
0.0
 11
-2.5
 21
0.0
 31
0.0
  0
LINE
  5
466
330
461
100
AcDbEntity
  8
FORMAT
 62
     0
100
AcDbLine
 10
0.0
 20
0.0
 30
0.0
 11
0.0
 21
-2.5
 31
0.0
  0
LINE
  5
467
330
461
100
AcDbEntity
  8
FORMAT
 62
     0
100
AcDbLine
 10
0.0
 20
0.0
 30
0.0
 11
2.5
 21
0.0
 31
0.0
  0
LINE
  5
468
330
461
100
AcDbEntity
  8
FORMAT
 62
     0
100
AcDbLine
 10
0.0
 20
2.5
 30
0.0
 11
0.0
 21
4.5
 31
0.0
  0
LINE
  5
469
330
461
100
AcDbEntity
  8
FORMAT
 62
     0
100
AcDbLine
 10
-2.5
 20
0.0
 30
0.0
 11
-4.5
 21
0.0
 31
0.0
  0
LINE
  5
46A
330
461
100
AcDbEntity
  8
FORMAT
 62
     0
100
AcDbLine
 10
0.0
 20
-2.5
 30
0.0
 11
0.0
 21
-4.5
 31
0.0
  0
LINE
  5
46B
330
461
100
AcDbEntity
  8
FORMAT
 62
     0
100
AcDbLine
 10
2.5
 20
0.0
 30
0.0
 11
4.5
 21
0.0
 31
0.0
  0
ENDBLK
  5
463
330
461
100
AcDbEntity
  8
0
100
AcDbBlockEnd
  0
BLOCK
  5
46E
330
46D
100
AcDbEntity
  8
0
100
AcDbBlockBegin
  2
SW_CENTERMARKSYMBOL_7
 70
     0
 10
0.0
 20
0.0
 30
0.0
  3
SW_CENTERMARKSYMBOL_7
  1

  0
LINE
  5
470
330
46D
100
AcDbEntity
  8
FORMAT
 62
     0
100
AcDbLine
 10
0.0
 20
0.0
 30
0.0
 11
0.0
 21
2.5
 31
0.0
  0
LINE
  5
471
330
46D
100
AcDbEntity
  8
FORMAT
 62
     0
100
AcDbLine
 10
0.0
 20
0.0
 30
0.0
 11
-2.5
 21
0.0
 31
0.0
  0
LINE
  5
472
330
46D
100
AcDbEntity
  8
FORMAT
 62
     0
100
AcDbLine
 10
0.0
 20
0.0
 30
0.0
 11
0.0
 21
-2.5
 31
0.0
  0
LINE
  5
473
330
46D
100
AcDbEntity
  8
FORMAT
 62
     0
100
AcDbLine
 10
0.0
 20
0.0
 30
0.0
 11
2.5
 21
0.0
 31
0.0
  0
LINE
  5
474
330
46D
100
AcDbEntity
  8
FORMAT
 62
     0
100
AcDbLine
 10
0.0
 20
2.5
 30
0.0
 11
0.0
 21
4.5
 31
0.0
  0
LINE
  5
475
330
46D
100
AcDbEntity
  8
FORMAT
 62
     0
100
AcDbLine
 10
-2.5
 20
0.0
 30
0.0
 11
-4.5
 21
0.0
 31
0.0
  0
LINE
  5
476
330
46D
100
AcDbEntity
  8
FORMAT
 62
     0
100
AcDbLine
 10
0.0
 20
-2.5
 30
0.0
 11
0.0
 21
-4.5
 31
0.0
  0
LINE
  5
477
330
46D
100
AcDbEntity
  8
FORMAT
 62
     0
100
AcDbLine
 10
2.5
 20
0.0
 30
0.0
 11
4.5
 21
0.0
 31
0.0
  0
ENDBLK
  5
46F
330
46D
100
AcDbEntity
  8
0
100
AcDbBlockEnd
  0
BLOCK
  5
4C5
330
4C4
100
AcDbEntity
  8
0
100
AcDbBlockBegin
  2
SW_CENTERMARKSYMBOL_8
 70
     0
 10
0.0
 20
0.0
 30
0.0
  3
SW_CENTERMARKSYMBOL_8
  1

  0
LINE
  5
4C7
330
4C4
100
AcDbEntity
  8
FORMAT
 62
     0
100
AcDbLine
 10
0.0
 20
0.0
 30
0.0
 11
0.0
 21
2.5
 31
0.0
  0
LINE
  5
4C8
330
4C4
100
AcDbEntity
  8
FORMAT
 62
     0
100
AcDbLine
 10
0.0
 20
0.0
 30
0.0
 11
-2.5
 21
0.0
 31
0.0
  0
LINE
  5
4C9
330
4C4
100
AcDbEntity
  8
FORMAT
 62
     0
100
AcDbLine
 10
0.0
 20
0.0
 30
0.0
 11
0.0
 21
-2.5
 31
0.0
  0
LINE
  5
4CA
330
4C4
100
AcDbEntity
  8
FORMAT
 62
     0
100
AcDbLine
 10
0.0
 20
0.0
 30
0.0
 11
2.5
 21
0.0
 31
0.0
  0
LINE
  5
4CB
330
4C4
100
AcDbEntity
  8
FORMAT
 62
     0
100
AcDbLine
 10
0.0
 20
5.0
 30
0.0
 11
0.0
 21
6.5
 31
0.0
  0
LINE
  5
4CC
330
4C4
100
AcDbEntity
  8
FORMAT
 62
     0
100
AcDbLine
 10
-5.0
 20
0.0
 30
0.0
 11
-6.5
 21
0.0
 31
0.0
  0
LINE
  5
4CD
330
4C4
100
AcDbEntity
  8
FORMAT
 62
     0
100
AcDbLine
 10
0.0
 20
-5.0
 30
0.0
 11
0.0
 21
-6.5
 31
0.0
  0
LINE
  5
4CE
330
4C4
100
AcDbEntity
  8
FORMAT
 62
     0
100
AcDbLine
 10
5.0
 20
0.0
 30
0.0
 11
6.5
 21
0.0
 31
0.0
  0
ENDBLK
  5
4C6
330
4C4
100
AcDbEntity
  8
0
100
AcDbBlockEnd
  0
BLOCK
  5
4D1
330
4D0
100
AcDbEntity
  8
0
100
AcDbBlockBegin
  2
SW_CENTERMARKSYMBOL_9
 70
     0
 10
0.0
 20
0.0
 30
0.0
  3
SW_CENTERMARKSYMBOL_9
  1

  0
LINE
  5
4D3
330
4D0
100
AcDbEntity
  8
FORMAT
 62
     0
100
AcDbLine
 10
0.0
 20
0.0
 30
0.0
 11
0.0
 21
2.5
 31
0.0
  0
LINE
  5
4D4
330
4D0
100
AcDbEntity
  8
FORMAT
 62
     0
100
AcDbLine
 10
0.0
 20
0.0
 30
0.0
 11
-2.5
 21
0.0
 31
0.0
  0
LINE
  5
4D5
330
4D0
100
AcDbEntity
  8
FORMAT
 62
     0
100
AcDbLine
 10
0.0
 20
0.0
 30
0.0
 11
0.0
 21
-2.5
 31
0.0
  0
LINE
  5
4D6
330
4D0
100
AcDbEntity
  8
FORMAT
 62
     0
100
AcDbLine
 10
0.0
 20
0.0
 30
0.0
 11
2.5
 21
0.0
 31
0.0
  0
LINE
  5
4D7
330
4D0
100
AcDbEntity
  8
FORMAT
 62
     0
100
AcDbLine
 10
0.0
 20
2.5
 30
0.0
 11
0.0
 21
4.0
 31
0.0
  0
LINE
  5
4D8
330
4D0
100
AcDbEntity
  8
FORMAT
 62
     0
100
AcDbLine
 10
-2.5
 20
0.0
 30
0.0
 11
-4.0
 21
0.0
 31
0.0
  0
LINE
  5
4D9
330
4D0
100
AcDbEntity
  8
FORMAT
 62
     0
100
AcDbLine
 10
0.0
 20
-2.5
 30
0.0
 11
0.0
 21
-4.0
 31
0.0
  0
LINE
  5
4DA
330
4D0
100
AcDbEntity
  8
FORMAT
 62
     0
100
AcDbLine
 10
2.5
 20
0.0
 30
0.0
 11
4.0
 21
0.0
 31
0.0
  0
ENDBLK
  5
4D2
330
4D0
100
AcDbEntity
  8
0
100
AcDbBlockEnd
  0
BLOCK
  5
4DD
330
4DC
100
AcDbEntity
  8
0
100
AcDbBlockBegin
  2
SW_CENTERMARKSYMBOL_10
 70
     0
 10
0.0
 20
0.0
 30
0.0
  3
SW_CENTERMARKSYMBOL_10
  1

  0
LINE
  5
4DF
330
4DC
100
AcDbEntity
  8
FORMAT
 62
     0
100
AcDbLine
 10
0.0
 20
0.0
 30
0.0
 11
0.0
 21
2.5
 31
0.0
  0
LINE
  5
4E0
330
4DC
100
AcDbEntity
  8
FORMAT
 62
     0
100
AcDbLine
 10
0.0
 20
0.0
 30
0.0
 11
-2.5
 21
0.0
 31
0.0
  0
LINE
  5
4E1
330
4DC
100
AcDbEntity
  8
FORMAT
 62
     0
100
AcDbLine
 10
0.0
 20
0.0
 30
0.0
 11
0.0
 21
-2.5
 31
0.0
  0
LINE
  5
4E2
330
4DC
100
AcDbEntity
  8
FORMAT
 62
     0
100
AcDbLine
 10
0.0
 20
0.0
 30
0.0
 11
2.5
 21
0.0
 31
0.0
  0
LINE
  5
4E3
330
4DC
100
AcDbEntity
  8
FORMAT
 62
     0
100
AcDbLine
 10
0.0
 20
2.5
 30
0.0
 11
0.0
 21
4.0
 31
0.0
  0
LINE
  5
4E4
330
4DC
100
AcDbEntity
  8
FORMAT
 62
     0
100
AcDbLine
 10
-2.5
 20
0.0
 30
0.0
 11
-4.0
 21
0.0
 31
0.0
  0
LINE
  5
4E5
330
4DC
100
AcDbEntity
  8
FORMAT
 62
     0
100
AcDbLine
 10
0.0
 20
-2.5
 30
0.0
 11
0.0
 21
-4.0
 31
0.0
  0
LINE
  5
4E6
330
4DC
100
AcDbEntity
  8
FORMAT
 62
     0
100
AcDbLine
 10
2.5
 20
0.0
 30
0.0
 11
4.0
 21
0.0
 31
0.0
  0
ENDBLK
  5
4DE
330
4DC
100
AcDbEntity
  8
0
100
AcDbBlockEnd
  0
BLOCK
  5
506
330
505
100
AcDbEntity
  8
0
100
AcDbBlockBegin
  2
_D_4
 70
     0
 10
0.0
 20
0.0
 30
0.0
  3
_D_4
  1

  0
INSERT
  5
508
330
505
100
AcDbEntity
  8
FORMAT
100
AcDbBlockReference
  2
_Oblique
 10
577.1486552211
 20
429.3844754328
 30
0.0
 41
9.906
 42
9.906
 50
180.0
  0
INSERT
  5
509
330
505
100
AcDbEntity
  8
FORMAT
100
AcDbBlockReference
  2
_Oblique
 10
628.8486552211
 20
429.3844754328
 30
0.0
 41
9.906
 42
9.906
 50
0.0
  0
LINE
  5
50A
330
505
100
AcDbEntity
  8
FORMAT
100
AcDbLine
 10
577.1486552211
 20
562.3844754328
 30
0.0
 11
577.1486552211
 21
426.3844754328
 31
0.0
  0
LINE
  5
50B
330
505
100
AcDbEntity
  8
FORMAT
100
AcDbLine
 10
628.8486552211
 20
492.3844754328
 30
0.0
 11
628.8486552211
 21
426.3844754328
 31
0.0
  0
LINE
  5
50C
330
505
100
AcDbEntity
  8
FORMAT
100
AcDbLine
 10
577.1486552211
 20
429.3844754328
 30
0.0
 11
628.8486552211
 21
429.3844754328
 31
0.0
  0
MTEXT
  5
50D
330
505
100
AcDbEntity
  8
FORMAT
100
AcDbMText
 10
591.9804125473
 20
442.9196861766
 30
0.0
 40
10.5
 41
0.0
 71
     1
 72
     1
  1
51.7
  7
SLDTEXTSTYLE2
 73
     1
 44
1.0
  0
ENDBLK
  5
507
330
505
100
AcDbEntity
  8
0
100
AcDbBlockEnd
  0
BLOCK
  5
550
330
54F
100
AcDbEntity
  8
0
100
AcDbBlockBegin
  2
_D_5
 70
     0
 10
0.0
 20
0.0
 30
0.0
  3
_D_5
  1

  0
INSERT
  5
552
330
54F
100
AcDbEntity
  8
FORMAT
100
AcDbBlockReference
  2
_Oblique
 10
818.4909339547
 20
497.1844754328
 30
-24.15
 41
9.906
 42
9.906
 50
270.0
  0
INSERT
  5
553
330
54F
100
AcDbEntity
  8
FORMAT
100
AcDbBlockReference
  2
_Oblique
 10
818.4909339547
 20
520.3844754328
 30
-24.15
 41
9.906
 42
9.906
 50
90.0
  0
LINE
  5
554
330
54F
100
AcDbEntity
  8
FORMAT
100
AcDbLine
 10
862.5592661624
 20
520.3844754328
 30
0.0
 11
815.4909339547
 21
520.3844754328
 31
0.0
  0
LINE
  5
555
330
54F
100
AcDbEntity
  8
FORMAT
100
AcDbLine
 10
818.4909339547
 20
497.1844754328
 30
0.0
 11
818.4909339547
 21
520.3844754328
 31
0.0
  0
MTEXT
  5
556
330
54F
100
AcDbEntity
  8
FORMAT
100
AcDbMText
 10
804.955723211
 20
503.1236860941
 30
0.0
 40
10.5
 41
0.0
 71
     1
 72
     1
  1
23.2
  7
SLDTEXTSTYLE2
 11
6.123233995736766E-17
 21
1.0
 31
0.0
 73
     1
 44
1.0
  0
ENDBLK
  5
551
330
54F
100
AcDbEntity
  8
0
100
AcDbBlockEnd
  0
BLOCK
  5
559
330
558
100
AcDbEntity
  8
0
100
AcDbBlockBegin
  2
_D_6
 70
     0
 10
0.0
 20
0.0
 30
0.0
  3
_D_6
  1

  0
INSERT
  5
55B
330
558
100
AcDbEntity
  8
FORMAT
100
AcDbBlockReference
  2
_Oblique
 10
865.5592661624
 20
465.3844754328
 30
-24.15
 41
9.906
 42
9.906
 50
180.0
  0
INSERT
  5
55C
330
558
100
AcDbEntity
  8
FORMAT
100
AcDbBlockReference
  2
_Oblique
 10
900.5592661624
 20
465.3844754328
 30
-24.15
 41
9.906
 42
9.906
 50
0.0
  0
LINE
  5
55D
330
558
100
AcDbEntity
  8
FORMAT
100
AcDbLine
 10
865.5592661624
 20
492.3956210508
 30
0.0
 11
865.5592661624
 21
462.3844754328
 31
0.0
  0
LINE
  5
55E
330
558
100
AcDbEntity
  8
FORMAT
100
AcDbLine
 10
900.5592661624
 20
492.3956210508
 30
0.0
 11
900.5592661624
 21
462.3844754328
 31
0.0
  0
LINE
  5
55F
330
558
100
AcDbEntity
  8
FORMAT
100
AcDbLine
 10
865.5592661624
 20
465.3844754328
 30
0.0
 11
900.5592661624
 21
465.3844754328
 31
0.0
  0
MTEXT
  5
560
330
558
100
AcDbEntity
  8
FORMAT
100
AcDbMText
 10
875.0424786582
 20
478.9196861766
 30
0.0
 40
10.5
 41
0.0
 71
     1
 72
     1
  1
35
  7
SLDTEXTSTYLE2
 73
     1
 44
1.0
  0
ENDBLK
  5
55A
330
558
100
AcDbEntity
  8
0
100
AcDbBlockEnd
  0
BLOCK
  5
580
330
57F
100
AcDbEntity
  8
0
100
AcDbBlockBegin
  2
_D_7
 70
     0
 10
0.0
 20
0.0
 30
0.0
  3
_D_7
  1

  0
INSERT
  5
582
330
57F
100
AcDbEntity
  8
FORMAT
100
AcDbBlockReference
  2
_Oblique
 10
521.8801108464
 20
207.5390755788
 30
3.7
 41
9.906
 42
9.906
 50
90.0
  0
INSERT
  5
583
330
57F
100
AcDbEntity
  8
FORMAT
100
AcDbBlockReference
  2
_Oblique
 10
521.8801108464
 20
113.5390755788
 30
3.7
 41
9.906
 42
9.906
 50
270.0
  0
LINE
  5
584
330
57F
100
AcDbEntity
  8
FORMAT
100
AcDbLine
 10
611.8801108464
 20
207.5390755788
 30
0.0
 11
518.8801108464
 21
207.5390755788
 31
0.0
  0
LINE
  5
585
330
57F
100
AcDbEntity
  8
FORMAT
100
AcDbLine
 10
589.8801108464
 20
113.5390755788
 30
0.0
 11
518.8801108464
 21
113.5390755788
 31
0.0
  0
LINE
  5
586
330
57F
100
AcDbEntity
  8
FORMAT
100
AcDbLine
 10
521.8801108464
 20
207.5390755788
 30
0.0
 11
521.8801108464
 21
113.5390755788
 31
0.0
  0
MTEXT
  5
587
330
57F
100
AcDbEntity
  8
FORMAT
100
AcDbMText
 10
508.3449001026
 20
152.7887094861
 30
0.0
 40
10.5
 41
0.0
 71
     1
 72
     1
  1
94
  7
SLDTEXTSTYLE2
 11
-7.044195017643634E-15
 21
1.0
 31
0.0
 73
     1
 44
1.0
  0
ENDBLK
  5
581
330
57F
100
AcDbEntity
  8
0
100
AcDbBlockEnd
  0
BLOCK
  5
58A
330
589
100
AcDbEntity
  8
0
100
AcDbBlockBegin
  2
_D_8
 70
     0
 10
0.0
 20
0.0
 30
0.0
  3
_D_8
  1

  0
INSERT
  5
58C
330
589
100
AcDbEntity
  8
FORMAT
100
AcDbBlockReference
  2
_Oblique
 10
587.8801108464
 20
65.5390755788
 30
3.7
 41
9.906
 42
9.906
 50
180.0
  0
INSERT
  5
58D
330
589
100
AcDbEntity
  8
FORMAT
100
AcDbBlockReference
  2
_Oblique
 10
687.8801108464
 20
65.5390755788
 30
3.7
 41
9.906
 42
9.906
 50
0.0
  0
LINE
  5
58E
330
589
100
AcDbEntity
  8
FORMAT
100
AcDbLine
 10
587.8801108464
 20
115.5390755788
 30
0.0
 11
587.8801108464
 21
62.5390755788
 31
0.0
  0
LINE
  5
58F
330
589
100
AcDbEntity
  8
FORMAT
100
AcDbLine
 10
687.8801108464
 20
115.5390755788
 30
0.0
 11
687.8801108464
 21
62.5390755788
 31
0.0
  0
LINE
  5
590
330
589
100
AcDbEntity
  8
FORMAT
100
AcDbLine
 10
587.8801108464
 20
65.5390755788
 30
0.0
 11
687.8801108464
 21
65.5390755788
 31
0.0
  0
MTEXT
  5
591
330
589
100
AcDbEntity
  8
FORMAT
100
AcDbMText
 10
625.4030226677
 20
79.0742863226
 30
0.0
 40
10.5
 41
0.0
 71
     1
 72
     1
  1
100
  7
SLDTEXTSTYLE2
 73
     1
 44
1.0
  0
ENDBLK
  5
58B
330
589
100
AcDbEntity
  8
0
100
AcDbBlockEnd
  0
BLOCK
  5
593
330
592
100
AcDbEntity
  8
0
100
AcDbBlockBegin
  2
SW_CENTERMARKSYMBOL_11
 70
     0
 10
0.0
 20
0.0
 30
0.0
  3
SW_CENTERMARKSYMBOL_11
  1

  0
LINE
  5
595
330
592
100
AcDbEntity
  8
FORMAT
 62
     0
100
AcDbLine
 10
0.0
 20
0.0
 30
0.0
 11
0.0
 21
2.5
 31
0.0
  0
LINE
  5
596
330
592
100
AcDbEntity
  8
FORMAT
 62
     0
100
AcDbLine
 10
0.0
 20
0.0
 30
0.0
 11
-2.5
 21
0.0
 31
0.0
  0
LINE
  5
597
330
592
100
AcDbEntity
  8
FORMAT
 62
     0
100
AcDbLine
 10
0.0
 20
0.0
 30
0.0
 11
0.0
 21
-2.5
 31
0.0
  0
LINE
  5
598
330
592
100
AcDbEntity
  8
FORMAT
 62
     0
100
AcDbLine
 10
0.0
 20
0.0
 30
0.0
 11
2.5
 21
0.0
 31
0.0
  0
LINE
  5
599
330
592
100
AcDbEntity
  8
FORMAT
 62
     0
100
AcDbLine
 10
0.0
 20
2.5
 30
0.0
 11
0.0
 21
4.0
 31
0.0
  0
LINE
  5
59A
330
592
100
AcDbEntity
  8
FORMAT
 62
     0
100
AcDbLine
 10
-2.5
 20
0.0
 30
0.0
 11
-4.0
 21
0.0
 31
0.0
  0
LINE
  5
59B
330
592
100
AcDbEntity
  8
FORMAT
 62
     0
100
AcDbLine
 10
0.0
 20
-2.5
 30
0.0
 11
0.0
 21
-4.0
 31
0.0
  0
LINE
  5
59C
330
592
100
AcDbEntity
  8
FORMAT
 62
     0
100
AcDbLine
 10
2.5
 20
0.0
 30
0.0
 11
4.0
 21
0.0
 31
0.0
  0
ENDBLK
  5
594
330
592
100
AcDbEntity
  8
0
100
AcDbBlockEnd
  0
BLOCK
  5
59F
330
59E
100
AcDbEntity
  8
0
100
AcDbBlockBegin
  2
SW_CENTERMARKSYMBOL_12
 70
     0
 10
0.0
 20
0.0
 30
0.0
  3
SW_CENTERMARKSYMBOL_12
  1

  0
LINE
  5
5A1
330
59E
100
AcDbEntity
  8
FORMAT
 62
     0
100
AcDbLine
 10
0.0
 20
0.0
 30
0.0
 11
0.0
 21
2.5
 31
0.0
  0
LINE
  5
5A2
330
59E
100
AcDbEntity
  8
FORMAT
 62
     0
100
AcDbLine
 10
0.0
 20
0.0
 30
0.0
 11
-2.5
 21
0.0
 31
0.0
  0
LINE
  5
5A3
330
59E
100
AcDbEntity
  8
FORMAT
 62
     0
100
AcDbLine
 10
0.0
 20
0.0
 30
0.0
 11
0.0
 21
-2.5
 31
0.0
  0
LINE
  5
5A4
330
59E
100
AcDbEntity
  8
FORMAT
 62
     0
100
AcDbLine
 10
0.0
 20
0.0
 30
0.0
 11
2.5
 21
0.0
 31
0.0
  0
LINE
  5
5A5
330
59E
100
AcDbEntity
  8
FORMAT
 62
     0
100
AcDbLine
 10
0.0
 20
2.5
 30
0.0
 11
0.0
 21
4.0
 31
0.0
  0
LINE
  5
5A6
330
59E
100
AcDbEntity
  8
FORMAT
 62
     0
100
AcDbLine
 10
-2.5
 20
0.0
 30
0.0
 11
-4.0
 21
0.0
 31
0.0
  0
LINE
  5
5A7
330
59E
100
AcDbEntity
  8
FORMAT
 62
     0
100
AcDbLine
 10
0.0
 20
-2.5
 30
0.0
 11
0.0
 21
-4.0
 31
0.0
  0
LINE
  5
5A8
330
59E
100
AcDbEntity
  8
FORMAT
 62
     0
100
AcDbLine
 10
2.5
 20
0.0
 30
0.0
 11
4.0
 21
0.0
 31
0.0
  0
ENDBLK
  5
5A0
330
59E
100
AcDbEntity
  8
0
100
AcDbBlockEnd
  0
BLOCK
  5
5AB
330
5AA
100
AcDbEntity
  8
0
100
AcDbBlockBegin
  2
SW_CENTERMARKSYMBOL_13
 70
     0
 10
0.0
 20
0.0
 30
0.0
  3
SW_CENTERMARKSYMBOL_13
  1

  0
LINE
  5
5AD
330
5AA
100
AcDbEntity
  8
FORMAT
 62
     0
100
AcDbLine
 10
0.0
 20
0.0
 30
0.0
 11
0.0
 21
2.5
 31
0.0
  0
LINE
  5
5AE
330
5AA
100
AcDbEntity
  8
FORMAT
 62
     0
100
AcDbLine
 10
0.0
 20
0.0
 30
0.0
 11
-2.5
 21
0.0
 31
0.0
  0
LINE
  5
5AF
330
5AA
100
AcDbEntity
  8
FORMAT
 62
     0
100
AcDbLine
 10
0.0
 20
0.0
 30
0.0
 11
0.0
 21
-2.5
 31
0.0
  0
LINE
  5
5B0
330
5AA
100
AcDbEntity
  8
FORMAT
 62
     0
100
AcDbLine
 10
0.0
 20
0.0
 30
0.0
 11
2.5
 21
0.0
 31
0.0
  0
LINE
  5
5B1
330
5AA
100
AcDbEntity
  8
FORMAT
 62
     0
100
AcDbLine
 10
0.0
 20
2.5
 30
0.0
 11
0.0
 21
5.0
 31
0.0
  0
LINE
  5
5B2
330
5AA
100
AcDbEntity
  8
FORMAT
 62
     0
100
AcDbLine
 10
-2.5
 20
0.0
 30
0.0
 11
-5.0
 21
0.0
 31
0.0
  0
LINE
  5
5B3
330
5AA
100
AcDbEntity
  8
FORMAT
 62
     0
100
AcDbLine
 10
0.0
 20
-2.5
 30
0.0
 11
0.0
 21
-5.0
 31
0.0
  0
LINE
  5
5B4
330
5AA
100
AcDbEntity
  8
FORMAT
 62
     0
100
AcDbLine
 10
2.5
 20
0.0
 30
0.0
 11
5.0
 21
0.0
 31
0.0
  0
ENDBLK
  5
5AC
330
5AA
100
AcDbEntity
  8
0
100
AcDbBlockEnd
  0
BLOCK
  5
5B7
330
5B6
100
AcDbEntity
  8
0
100
AcDbBlockBegin
  2
SW_CENTERMARKSYMBOL_14
 70
     0
 10
0.0
 20
0.0
 30
0.0
  3
SW_CENTERMARKSYMBOL_14
  1

  0
LINE
  5
5B9
330
5B6
100
AcDbEntity
  8
FORMAT
 62
     0
100
AcDbLine
 10
0.0
 20
0.0
 30
0.0
 11
0.0
 21
2.5
 31
0.0
  0
LINE
  5
5BA
330
5B6
100
AcDbEntity
  8
FORMAT
 62
     0
100
AcDbLine
 10
0.0
 20
0.0
 30
0.0
 11
-2.5
 21
0.0
 31
0.0
  0
LINE
  5
5BB
330
5B6
100
AcDbEntity
  8
FORMAT
 62
     0
100
AcDbLine
 10
0.0
 20
0.0
 30
0.0
 11
0.0
 21
-2.5
 31
0.0
  0
LINE
  5
5BC
330
5B6
100
AcDbEntity
  8
FORMAT
 62
     0
100
AcDbLine
 10
0.0
 20
0.0
 30
0.0
 11
2.5
 21
0.0
 31
0.0
  0
LINE
  5
5BD
330
5B6
100
AcDbEntity
  8
FORMAT
 62
     0
100
AcDbLine
 10
0.0
 20
2.5
 30
0.0
 11
0.0
 21
5.0
 31
0.0
  0
LINE
  5
5BE
330
5B6
100
AcDbEntity
  8
FORMAT
 62
     0
100
AcDbLine
 10
-2.5
 20
0.0
 30
0.0
 11
-5.0
 21
0.0
 31
0.0
  0
LINE
  5
5BF
330
5B6
100
AcDbEntity
  8
FORMAT
 62
     0
100
AcDbLine
 10
0.0
 20
-2.5
 30
0.0
 11
0.0
 21
-5.0
 31
0.0
  0
LINE
  5
5C0
330
5B6
100
AcDbEntity
  8
FORMAT
 62
     0
100
AcDbLine
 10
2.5
 20
0.0
 30
0.0
 11
5.0
 21
0.0
 31
0.0
  0
ENDBLK
  5
5B8
330
5B6
100
AcDbEntity
  8
0
100
AcDbBlockEnd
  0
BLOCK
  5
5C3
330
5C2
100
AcDbEntity
  8
0
100
AcDbBlockBegin
  2
SW_CENTERMARKSYMBOL_15
 70
     0
 10
0.0
 20
0.0
 30
0.0
  3
SW_CENTERMARKSYMBOL_15
  1

  0
LINE
  5
5C5
330
5C2
100
AcDbEntity
  8
FORMAT
 62
     0
100
AcDbLine
 10
0.0
 20
0.0
 30
0.0
 11
0.0
 21
2.5
 31
0.0
  0
LINE
  5
5C6
330
5C2
100
AcDbEntity
  8
FORMAT
 62
     0
100
AcDbLine
 10
0.0
 20
0.0
 30
0.0
 11
-2.5
 21
0.0
 31
0.0
  0
LINE
  5
5C7
330
5C2
100
AcDbEntity
  8
FORMAT
 62
     0
100
AcDbLine
 10
0.0
 20
0.0
 30
0.0
 11
0.0
 21
-2.5
 31
0.0
  0
LINE
  5
5C8
330
5C2
100
AcDbEntity
  8
FORMAT
 62
     0
100
AcDbLine
 10
0.0
 20
0.0
 30
0.0
 11
2.5
 21
0.0
 31
0.0
  0
LINE
  5
5C9
330
5C2
100
AcDbEntity
  8
FORMAT
 62
     0
100
AcDbLine
 10
0.0
 20
2.5
 30
0.0
 11
0.0
 21
4.0
 31
0.0
  0
LINE
  5
5CA
330
5C2
100
AcDbEntity
  8
FORMAT
 62
     0
100
AcDbLine
 10
-2.5
 20
0.0
 30
0.0
 11
-4.0
 21
0.0
 31
0.0
  0
LINE
  5
5CB
330
5C2
100
AcDbEntity
  8
FORMAT
 62
     0
100
AcDbLine
 10
0.0
 20
-2.5
 30
0.0
 11
0.0
 21
-4.0
 31
0.0
  0
LINE
  5
5CC
330
5C2
100
AcDbEntity
  8
FORMAT
 62
     0
100
AcDbLine
 10
2.5
 20
0.0
 30
0.0
 11
4.0
 21
0.0
 31
0.0
  0
ENDBLK
  5
5C4
330
5C2
100
AcDbEntity
  8
0
100
AcDbBlockEnd
  0
BLOCK
  5
5CF
330
5CE
100
AcDbEntity
  8
0
100
AcDbBlockBegin
  2
SW_CENTERMARKSYMBOL_16
 70
     0
 10
0.0
 20
0.0
 30
0.0
  3
SW_CENTERMARKSYMBOL_16
  1

  0
LINE
  5
5D1
330
5CE
100
AcDbEntity
  8
FORMAT
 62
     0
100
AcDbLine
 10
0.0
 20
0.0
 30
0.0
 11
0.0
 21
2.5
 31
0.0
  0
LINE
  5
5D2
330
5CE
100
AcDbEntity
  8
FORMAT
 62
     0
100
AcDbLine
 10
0.0
 20
0.0
 30
0.0
 11
-2.5
 21
0.0
 31
0.0
  0
LINE
  5
5D3
330
5CE
100
AcDbEntity
  8
FORMAT
 62
     0
100
AcDbLine
 10
0.0
 20
0.0
 30
0.0
 11
0.0
 21
-2.5
 31
0.0
  0
LINE
  5
5D4
330
5CE
100
AcDbEntity
  8
FORMAT
 62
     0
100
AcDbLine
 10
0.0
 20
0.0
 30
0.0
 11
2.5
 21
0.0
 31
0.0
  0
LINE
  5
5D5
330
5CE
100
AcDbEntity
  8
FORMAT
 62
     0
100
AcDbLine
 10
0.0
 20
2.5
 30
0.0
 11
0.0
 21
4.0
 31
0.0
  0
LINE
  5
5D6
330
5CE
100
AcDbEntity
  8
FORMAT
 62
     0
100
AcDbLine
 10
-2.5
 20
0.0
 30
0.0
 11
-4.0
 21
0.0
 31
0.0
  0
LINE
  5
5D7
330
5CE
100
AcDbEntity
  8
FORMAT
 62
     0
100
AcDbLine
 10
0.0
 20
-2.5
 30
0.0
 11
0.0
 21
-4.0
 31
0.0
  0
LINE
  5
5D8
330
5CE
100
AcDbEntity
  8
FORMAT
 62
     0
100
AcDbLine
 10
2.5
 20
0.0
 30
0.0
 11
4.0
 21
0.0
 31
0.0
  0
ENDBLK
  5
5D0
330
5CE
100
AcDbEntity
  8
0
100
AcDbBlockEnd
  0
BLOCK
  5
5DB
330
5DA
100
AcDbEntity
  8
0
100
AcDbBlockBegin
  2
SW_CENTERMARKSYMBOL_17
 70
     0
 10
0.0
 20
0.0
 30
0.0
  3
SW_CENTERMARKSYMBOL_17
  1

  0
LINE
  5
5DD
330
5DA
100
AcDbEntity
  8
FORMAT
 62
     0
100
AcDbLine
 10
0.0
 20
0.0
 30
0.0
 11
0.0
 21
2.5
 31
0.0
  0
LINE
  5
5DE
330
5DA
100
AcDbEntity
  8
FORMAT
 62
     0
100
AcDbLine
 10
0.0
 20
0.0
 30
0.0
 11
-2.5
 21
0.0
 31
0.0
  0
LINE
  5
5DF
330
5DA
100
AcDbEntity
  8
FORMAT
 62
     0
100
AcDbLine
 10
0.0
 20
0.0
 30
0.0
 11
0.0
 21
-2.5
 31
0.0
  0
LINE
  5
5E0
330
5DA
100
AcDbEntity
  8
FORMAT
 62
     0
100
AcDbLine
 10
0.0
 20
0.0
 30
0.0
 11
2.5
 21
0.0
 31
0.0
  0
LINE
  5
5E1
330
5DA
100
AcDbEntity
  8
FORMAT
 62
     0
100
AcDbLine
 10
0.0
 20
2.5
 30
0.0
 11
0.0
 21
5.0
 31
0.0
  0
LINE
  5
5E2
330
5DA
100
AcDbEntity
  8
FORMAT
 62
     0
100
AcDbLine
 10
-2.5
 20
0.0
 30
0.0
 11
-5.0
 21
0.0
 31
0.0
  0
LINE
  5
5E3
330
5DA
100
AcDbEntity
  8
FORMAT
 62
     0
100
AcDbLine
 10
0.0
 20
-2.5
 30
0.0
 11
0.0
 21
-5.0
 31
0.0
  0
LINE
  5
5E4
330
5DA
100
AcDbEntity
  8
FORMAT
 62
     0
100
AcDbLine
 10
2.5
 20
0.0
 30
0.0
 11
5.0
 21
0.0
 31
0.0
  0
ENDBLK
  5
5DC
330
5DA
100
AcDbEntity
  8
0
100
AcDbBlockEnd
  0
BLOCK
  5
5E7
330
5E6
100
AcDbEntity
  8
0
100
AcDbBlockBegin
  2
SW_CENTERMARKSYMBOL_18
 70
     0
 10
0.0
 20
0.0
 30
0.0
  3
SW_CENTERMARKSYMBOL_18
  1

  0
LINE
  5
5E9
330
5E6
100
AcDbEntity
  8
FORMAT
 62
     0
100
AcDbLine
 10
0.0
 20
0.0
 30
0.0
 11
0.0
 21
2.5
 31
0.0
  0
LINE
  5
5EA
330
5E6
100
AcDbEntity
  8
FORMAT
 62
     0
100
AcDbLine
 10
0.0
 20
0.0
 30
0.0
 11
-2.5
 21
0.0
 31
0.0
  0
LINE
  5
5EB
330
5E6
100
AcDbEntity
  8
FORMAT
 62
     0
100
AcDbLine
 10
0.0
 20
0.0
 30
0.0
 11
0.0
 21
-2.5
 31
0.0
  0
LINE
  5
5EC
330
5E6
100
AcDbEntity
  8
FORMAT
 62
     0
100
AcDbLine
 10
0.0
 20
0.0
 30
0.0
 11
2.5
 21
0.0
 31
0.0
  0
LINE
  5
5ED
330
5E6
100
AcDbEntity
  8
FORMAT
 62
     0
100
AcDbLine
 10
0.0
 20
2.5
 30
0.0
 11
0.0
 21
5.0
 31
0.0
  0
LINE
  5
5EE
330
5E6
100
AcDbEntity
  8
FORMAT
 62
     0
100
AcDbLine
 10
-2.5
 20
0.0
 30
0.0
 11
-5.0
 21
0.0
 31
0.0
  0
LINE
  5
5EF
330
5E6
100
AcDbEntity
  8
FORMAT
 62
     0
100
AcDbLine
 10
0.0
 20
-2.5
 30
0.0
 11
0.0
 21
-5.0
 31
0.0
  0
LINE
  5
5F0
330
5E6
100
AcDbEntity
  8
FORMAT
 62
     0
100
AcDbLine
 10
2.5
 20
0.0
 30
0.0
 11
5.0
 21
0.0
 31
0.0
  0
ENDBLK
  5
5E8
330
5E6
100
AcDbEntity
  8
0
100
AcDbBlockEnd
  0
BLOCK
  5
62C
330
62B
100
AcDbEntity
  8
0
100
AcDbBlockBegin
  2
_D_9
 70
     0
 10
0.0
 20
0.0
 30
0.0
  3
_D_9
  1

  0
INSERT
  5
62E
330
62B
100
AcDbEntity
  8
FORMAT
100
AcDbBlockReference
  2
_Oblique
 10
772.3223016302
 20
65.5390755788
 30
0.0
 41
9.906
 42
9.906
 50
180.0
  0
INSERT
  5
62F
330
62B
100
AcDbEntity
  8
FORMAT
100
AcDbBlockReference
  2
_Oblique
 10
784.9223016302
 20
65.5390755788
 30
0.0
 41
9.906
 42
9.906
 50
0.0
  0
LINE
  5
630
330
62B
100
AcDbEntity
  8
FORMAT
100
AcDbLine
 10
772.3223016302
 20
155.7390755788
 30
0.0
 11
772.3223016302
 21
62.5390755788
 31
0.0
  0
LINE
  5
631
330
62B
100
AcDbEntity
  8
FORMAT
100
AcDbLine
 10
784.9223016302
 20
110.5390755788
 30
0.0
 11
784.9223016302
 21
62.5390755788
 31
0.0
  0
LINE
  5
632
330
62B
100
AcDbEntity
  8
FORMAT
100
AcDbLine
 10
772.3223016302
 20
65.5390755788
 30
0.0
 11
784.9223016302
 21
65.5390755788
 31
0.0
  0
LINE
  5
633
330
62B
100
AcDbEntity
  8
FORMAT
100
AcDbLine
 10
784.9223016302
 20
65.5390755788
 30
0.0
 11
823.2523253755
 21
65.5390755788
 31
0.0
  0
MTEXT
  5
634
330
62B
100
AcDbEntity
  8
FORMAT
100
AcDbMText
 10
796.0981581927
 20
79.0742863225
 30
0.0
 40
10.5
 41
0.0
 71
     1
 72
     1
  1
12.6
  7
SLDTEXTSTYLE2
 73
     1
 44
1.0
  0
ENDBLK
  5
62D
330
62B
100
AcDbEntity
  8
0
100
AcDbBlockEnd
  0
BLOCK
  5
655
330
654
100
AcDbEntity
  8
0
100
AcDbBlockBegin
  2
_D_10
 70
     0
 10
0.0
 20
0.0
 30
0.0
  3
_D_10
  1

  0
INSERT
  5
657
330
654
100
AcDbEntity
  8
FORMAT
100
AcDbBlockReference
  2
_Oblique
 10
125.3540694056
 20
179.7363553727
 30
-39.8911273452
 41
9.906
 42
9.906
 50
90.0
  0
INSERT
  5
658
330
654
100
AcDbEntity
  8
FORMAT
100
AcDbBlockReference
  2
_Oblique
 10
125.3540694056
 20
114.1390755788
 30
-39.8911273452
 41
9.906
 42
9.906
 50
270.0
  0
LINE
  5
659
330
654
100
AcDbEntity
  8
FORMAT
100
AcDbLine
 10
199.8540694056
 20
179.7363553727
 30
0.0
 11
122.3540694056
 21
179.7363553727
 31
0.0
  0
LINE
  5
65A
330
654
100
AcDbEntity
  8
FORMAT
100
AcDbLine
 10
175.3540694056
 20
114.1390755788
 30
0.0
 11
122.3540694056
 21
114.1390755788
 31
0.0
  0
LINE
  5
65B
330
654
100
AcDbEntity
  8
FORMAT
100
AcDbLine
 10
125.3540694056
 20
179.7363553727
 30
0.0
 11
125.3540694056
 21
114.1390755788
 31
0.0
  0
MTEXT
  5
65C
330
654
100
AcDbEntity
  8
FORMAT
100
AcDbMText
 10
111.8188586618
 20
132.9962877709
 30
0.0
 40
10.5
 41
0.0
 71
     1
 72
     1
  1
65.6
  7
SLDTEXTSTYLE2
 11
-7.044195017643634E-15
 21
1.0
 31
0.0
 73
     1
 44
1.0
  0
ENDBLK
  5
656
330
654
100
AcDbEntity
  8
0
100
AcDbBlockEnd
  0
BLOCK
  5
65F
330
65E
100
AcDbEntity
  8
0
100
AcDbBlockBegin
  2
_D_11
 70
     0
 10
0.0
 20
0.0
 30
0.0
  3
_D_11
  1

  0
INSERT
  5
661
330
65E
100
AcDbEntity
  8
FORMAT
100
AcDbBlockReference
  2
_Oblique
 10
173.3540694056
 20
66.1390755788
 30
-39.8911273452
 41
9.906
 42
9.906
 50
180.0
  0
INSERT
  5
662
330
65E
100
AcDbEntity
  8
FORMAT
100
AcDbBlockReference
  2
_Oblique
 10
273.3540694056
 20
66.1390755788
 30
-39.8911273452
 41
9.906
 42
9.906
 50
0.0
  0
LINE
  5
663
330
65E
100
AcDbEntity
  8
FORMAT
100
AcDbLine
 10
173.3540694056
 20
116.1390755788
 30
0.0
 11
173.3540694056
 21
63.1390755788
 31
0.0
  0
LINE
  5
664
330
65E
100
AcDbEntity
  8
FORMAT
100
AcDbLine
 10
273.3540694056
 20
116.1390755788
 30
0.0
 11
273.3540694056
 21
63.1390755788
 31
0.0
  0
LINE
  5
665
330
65E
100
AcDbEntity
  8
FORMAT
100
AcDbLine
 10
173.3540694056
 20
66.1390755788
 30
0.0
 11
273.3540694056
 21
66.1390755788
 31
0.0
  0
MTEXT
  5
666
330
65E
100
AcDbEntity
  8
FORMAT
100
AcDbMText
 10
210.6900771503
 20
79.6742863226
 30
0.0
 40
10.5
 41
0.0
 71
     1
 72
     1
  1
100
  7
SLDTEXTSTYLE2
 73
     1
 44
1.0
  0
ENDBLK
  5
660
330
65E
100
AcDbEntity
  8
0
100
AcDbBlockEnd
  0
BLOCK
  5
668
330
667
100
AcDbEntity
  8
0
100
AcDbBlockBegin
  2
SW_CENTERMARKSYMBOL_19
 70
     0
 10
0.0
 20
0.0
 30
0.0
  3
SW_CENTERMARKSYMBOL_19
  1

  0
LINE
  5
66A
330
667
100
AcDbEntity
  8
FORMAT
 62
     0
100
AcDbLine
 10
0.0
 20
0.0
 30
0.0
 11
0.0
 21
2.5
 31
0.0
  0
LINE
  5
66B
330
667
100
AcDbEntity
  8
FORMAT
 62
     0
100
AcDbLine
 10
0.0
 20
0.0
 30
0.0
 11
-2.5
 21
0.0
 31
0.0
  0
LINE
  5
66C
330
667
100
AcDbEntity
  8
FORMAT
 62
     0
100
AcDbLine
 10
0.0
 20
0.0
 30
0.0
 11
0.0
 21
-2.5
 31
0.0
  0
LINE
  5
66D
330
667
100
AcDbEntity
  8
FORMAT
 62
     0
100
AcDbLine
 10
0.0
 20
0.0
 30
0.0
 11
2.5
 21
0.0
 31
0.0
  0
LINE
  5
66E
330
667
100
AcDbEntity
  8
FORMAT
 62
     0
100
AcDbLine
 10
0.0
 20
2.5
 30
0.0
 11
0.0
 21
5.0
 31
0.0
  0
LINE
  5
66F
330
667
100
AcDbEntity
  8
FORMAT
 62
     0
100
AcDbLine
 10
-2.5
 20
0.0
 30
0.0
 11
-5.0
 21
0.0
 31
0.0
  0
LINE
  5
670
330
667
100
AcDbEntity
  8
FORMAT
 62
     0
100
AcDbLine
 10
0.0
 20
-2.5
 30
0.0
 11
0.0
 21
-5.0
 31
0.0
  0
LINE
  5
671
330
667
100
AcDbEntity
  8
FORMAT
 62
     0
100
AcDbLine
 10
2.5
 20
0.0
 30
0.0
 11
5.0
 21
0.0
 31
0.0
  0
ENDBLK
  5
669
330
667
100
AcDbEntity
  8
0
100
AcDbBlockEnd
  0
BLOCK
  5
674
330
673
100
AcDbEntity
  8
0
100
AcDbBlockBegin
  2
SW_CENTERMARKSYMBOL_20
 70
     0
 10
0.0
 20
0.0
 30
0.0
  3
SW_CENTERMARKSYMBOL_20
  1

  0
LINE
  5
676
330
673
100
AcDbEntity
  8
FORMAT
 62
     0
100
AcDbLine
 10
0.0
 20
0.0
 30
0.0
 11
0.0
 21
2.5
 31
0.0
  0
LINE
  5
677
330
673
100
AcDbEntity
  8
FORMAT
 62
     0
100
AcDbLine
 10
0.0
 20
0.0
 30
0.0
 11
-2.5
 21
0.0
 31
0.0
  0
LINE
  5
678
330
673
100
AcDbEntity
  8
FORMAT
 62
     0
100
AcDbLine
 10
0.0
 20
0.0
 30
0.0
 11
0.0
 21
-2.5
 31
0.0
  0
LINE
  5
679
330
673
100
AcDbEntity
  8
FORMAT
 62
     0
100
AcDbLine
 10
0.0
 20
0.0
 30
0.0
 11
2.5
 21
0.0
 31
0.0
  0
LINE
  5
67A
330
673
100
AcDbEntity
  8
FORMAT
 62
     0
100
AcDbLine
 10
0.0
 20
2.5
 30
0.0
 11
0.0
 21
5.0
 31
0.0
  0
LINE
  5
67B
330
673
100
AcDbEntity
  8
FORMAT
 62
     0
100
AcDbLine
 10
-2.5
 20
0.0
 30
0.0
 11
-5.0
 21
0.0
 31
0.0
  0
LINE
  5
67C
330
673
100
AcDbEntity
  8
FORMAT
 62
     0
100
AcDbLine
 10
0.0
 20
-2.5
 30
0.0
 11
0.0
 21
-5.0
 31
0.0
  0
LINE
  5
67D
330
673
100
AcDbEntity
  8
FORMAT
 62
     0
100
AcDbLine
 10
2.5
 20
0.0
 30
0.0
 11
5.0
 21
0.0
 31
0.0
  0
ENDBLK
  5
675
330
673
100
AcDbEntity
  8
0
100
AcDbBlockEnd
  0
BLOCK
  5
680
330
67F
100
AcDbEntity
  8
0
100
AcDbBlockBegin
  2
SW_CENTERMARKSYMBOL_21
 70
     0
 10
0.0
 20
0.0
 30
0.0
  3
SW_CENTERMARKSYMBOL_21
  1

  0
LINE
  5
682
330
67F
100
AcDbEntity
  8
FORMAT
 62
     0
100
AcDbLine
 10
0.0
 20
0.0
 30
0.0
 11
0.0
 21
2.5
 31
0.0
  0
LINE
  5
683
330
67F
100
AcDbEntity
  8
FORMAT
 62
     0
100
AcDbLine
 10
0.0
 20
0.0
 30
0.0
 11
-2.5
 21
0.0
 31
0.0
  0
LINE
  5
684
330
67F
100
AcDbEntity
  8
FORMAT
 62
     0
100
AcDbLine
 10
0.0
 20
0.0
 30
0.0
 11
0.0
 21
-2.5
 31
0.0
  0
LINE
  5
685
330
67F
100
AcDbEntity
  8
FORMAT
 62
     0
100
AcDbLine
 10
0.0
 20
0.0
 30
0.0
 11
2.5
 21
0.0
 31
0.0
  0
LINE
  5
686
330
67F
100
AcDbEntity
  8
FORMAT
 62
     0
100
AcDbLine
 10
0.0
 20
2.5
 30
0.0
 11
0.0
 21
5.0
 31
0.0
  0
LINE
  5
687
330
67F
100
AcDbEntity
  8
FORMAT
 62
     0
100
AcDbLine
 10
-2.5
 20
0.0
 30
0.0
 11
-5.0
 21
0.0
 31
0.0
  0
LINE
  5
688
330
67F
100
AcDbEntity
  8
FORMAT
 62
     0
100
AcDbLine
 10
0.0
 20
-2.5
 30
0.0
 11
0.0
 21
-5.0
 31
0.0
  0
LINE
  5
689
330
67F
100
AcDbEntity
  8
FORMAT
 62
     0
100
AcDbLine
 10
2.5
 20
0.0
 30
0.0
 11
5.0
 21
0.0
 31
0.0
  0
ENDBLK
  5
681
330
67F
100
AcDbEntity
  8
0
100
AcDbBlockEnd
  0
BLOCK
  5
68C
330
68B
100
AcDbEntity
  8
0
100
AcDbBlockBegin
  2
SW_CENTERMARKSYMBOL_22
 70
     0
 10
0.0
 20
0.0
 30
0.0
  3
SW_CENTERMARKSYMBOL_22
  1

  0
LINE
  5
68E
330
68B
100
AcDbEntity
  8
FORMAT
 62
     0
100
AcDbLine
 10
0.0
 20
0.0
 30
0.0
 11
0.0
 21
2.5
 31
0.0
  0
LINE
  5
68F
330
68B
100
AcDbEntity
  8
FORMAT
 62
     0
100
AcDbLine
 10
0.0
 20
0.0
 30
0.0
 11
-2.5
 21
0.0
 31
0.0
  0
LINE
  5
690
330
68B
100
AcDbEntity
  8
FORMAT
 62
     0
100
AcDbLine
 10
0.0
 20
0.0
 30
0.0
 11
0.0
 21
-2.5
 31
0.0
  0
LINE
  5
691
330
68B
100
AcDbEntity
  8
FORMAT
 62
     0
100
AcDbLine
 10
0.0
 20
0.0
 30
0.0
 11
2.5
 21
0.0
 31
0.0
  0
LINE
  5
692
330
68B
100
AcDbEntity
  8
FORMAT
 62
     0
100
AcDbLine
 10
0.0
 20
2.5
 30
0.0
 11
0.0
 21
5.0
 31
0.0
  0
LINE
  5
693
330
68B
100
AcDbEntity
  8
FORMAT
 62
     0
100
AcDbLine
 10
-2.5
 20
0.0
 30
0.0
 11
-5.0
 21
0.0
 31
0.0
  0
LINE
  5
694
330
68B
100
AcDbEntity
  8
FORMAT
 62
     0
100
AcDbLine
 10
0.0
 20
-2.5
 30
0.0
 11
0.0
 21
-5.0
 31
0.0
  0
LINE
  5
695
330
68B
100
AcDbEntity
  8
FORMAT
 62
     0
100
AcDbLine
 10
2.5
 20
0.0
 30
0.0
 11
5.0
 21
0.0
 31
0.0
  0
ENDBLK
  5
68D
330
68B
100
AcDbEntity
  8
0
100
AcDbBlockEnd
  0
BLOCK
  5
6B7
330
6B6
100
AcDbEntity
  8
0
100
AcDbBlockBegin
  2
SW_NOTE_0_10
 70
     0
 10
0.0
 20
0.0
 30
0.0
  3
SW_NOTE_0_10
  1

  0
LINE
  5
6B9
330
6B6
100
AcDbEntity
  8
FORMAT
 62
     0
100
AcDbLine
 10
29.2375580837
 20
0.0
 30
0.0
 11
0.0
 21
0.0
 31
0.0
  0
MTEXT
  5
6BA
330
6B6
100
AcDbEntity
  8
FORMAT
 62
     0
100
AcDbMText
 10
1.1753521607
 20
13.2321947351
 30
0.0
 40
10.31875
 41
0.0
 71
     1
 72
     1
  1
φ8.5
  7
SLDTEXTSTYLE2
 73
     1
 44
1.0
  0
ENDBLK
  5
6B8
330
6B6
100
AcDbEntity
  8
0
100
AcDbBlockEnd
  0
BLOCK
  5
6D3
330
6D2
100
AcDbEntity
  8
0
100
AcDbBlockBegin
  2
_D_12
 70
     0
 10
0.0
 20
0.0
 30
0.0
  3
_D_12
  1

  0
INSERT
  5
6D5
330
6D2
100
AcDbEntity
  8
FORMAT
100
AcDbBlockReference
  2
_Oblique
 10
346.2244460562
 20
66.1390755788
 30
0.0
 41
9.906
 42
9.906
 50
180.0
  0
INSERT
  5
6D6
330
6D2
100
AcDbEntity
  8
FORMAT
100
AcDbBlockReference
  2
_Oblique
 10
426.0067007465
 20
66.1390755788
 30
0.0
 41
9.906
 42
9.906
 50
0.0
  0
LINE
  5
6D7
330
6D2
100
AcDbEntity
  8
FORMAT
100
AcDbLine
 10
346.2244460562
 20
174.2249482244
 30
0.0
 11
346.2244460562
 21
63.1390755788
 31
0.0
  0
LINE
  5
6D8
330
6D2
100
AcDbEntity
  8
FORMAT
100
AcDbLine
 10
426.0067007465
 20
111.1390755788
 30
0.0
 11
426.0067007465
 21
63.1390755788
 31
0.0
  0
LINE
  5
6D9
330
6D2
100
AcDbEntity
  8
FORMAT
100
AcDbLine
 10
346.2244460562
 20
66.1390755788
 30
0.0
 11
426.0067007465
 21
66.1390755788
 31
0.0
  0
MTEXT
  5
6DA
330
6D2
100
AcDbEntity
  8
FORMAT
100
AcDbMText
 10
373.3917499995
 20
79.6742863226
 30
0.0
 40
10.5
 41
0.0
 71
     1
 72
     1
  1
79.8
  7
SLDTEXTSTYLE2
 73
     1
 44
1.0
  0
ENDBLK
  5
6D4
330
6D2
100
AcDbEntity
  8
0
100
AcDbBlockEnd
  0
BLOCK
  5
6DE
330
6DD
100
AcDbEntity
  8
0
100
AcDbBlockBegin
  2
_D_13
 70
     0
 10
0.0
 20
0.0
 30
0.0
  3
_D_13
  1

  0
ARC
  5
6E0
330
6DD
100
AcDbEntity
  8
FORMAT
100
AcDbCircle
 10
423.4067007465
 20
156.5440254101
 30
0.0
 40
34.38045998588669
100
AcDbArc
 50
165.0
 51
270.0
  0
SOLID
  5
6E1
330
6DD
100
AcDbEntity
  8
FORMAT
100
AcDbTrace
 10
390.1977265265
 20
165.4423432338
 30
0.0
 11
387.4840122364
 21
155.7941741458
 31
0.0
 12
390.5095296173
 22
155.4246493459
 32
0.0
 13
390.5095296173
 23
155.4246493459
 33
0.0
  0
SOLID
  5
6E2
330
6DD
100
AcDbEntity
  8
FORMAT
100
AcDbTrace
 10
423.4067007465
 20
122.1635654242
 30
0.0
 11
413.8110520786
 21
125.0575140486
 31
0.0
 12
413.3849241067
 22
122.0394486166
 32
0.0
 13
413.3849241067
 23
122.0394486166
 33
0.0
  0
MTEXT
  5
6E3
330
6DD
100
AcDbEntity
  8
FORMAT
100
AcDbMText
 10
398.0503499047
 20
156.6899429945
 30
0.0
 40
10.5
 41
0.0
 71
     1
 72
     1
  1
105°
  7
SLDTEXTSTYLE2
 11
0.5646344076321949
 21
-0.8253411329370665
 31
0.0
 73
     1
 44
1.0
  0
ENDBLK
  5
6DF
330
6DD
100
AcDbEntity
  8
0
100
AcDbBlockEnd
  0
ENDSEC
  0
SECTION
  2
ENTITIES
  0
LINE
  5
37E
330
1F
100
AcDbEntity
  8
FORMAT
100
AcDbLine
 10
78.4921111302
 20
393.7885201849
 30
0.0
 11
1211.1467361685
 21
393.7885201849
 31
0.0
  0
LINE
  5
37F
330
1F
100
AcDbEntity
  8
FORMAT
100
AcDbLine
 10
759.674017427
 20
662.1699768768
 30
0.0
 11
1211.1467361685
 21
662.1699768768
 31
0.0
  0
LINE
  5
380
330
1F
100
AcDbEntity
  8
FORMAT
100
AcDbLine
 10
759.674017427
 20
662.1699768768
 30
0.0
 11
759.674017427
 21
823.9388901495
 31
0.0
  0
LINE
  5
381
330
1F
100
AcDbEntity
  8
FORMAT
100
AcDbLine
 10
759.674017427
 20
823.9388901495
 30
0.0
 11
1211.1467361685
 21
823.9388901495
 31
0.0
  0
LINE
  5
382
330
1F
100
AcDbEntity
  8
FORMAT
100
AcDbLine
 10
1211.1467361685
 20
662.1699768768
 30
0.0
 11
1211.1467361685
 21
823.9388901495
 31
0.0
  0
LINE
  5
383
330
1F
100
AcDbEntity
  8
AM_0
100
AcDbLine
 10
1236.6609933117
 20
835.9975323161
 30
0.0
 11
1236.6609933117
 21
1.3443147492
 31
0.0
  0
LINE
  5
384
330
1F
100
AcDbEntity
  8
AM_0
100
AcDbLine
 10
1236.6609933117
 20
835.9975323161
 30
0.0
 11
52.279639696
 21
835.9975323161
 31
0.0
  0
LINE
  5
385
330
1F
100
AcDbEntity
  8
AM_0
100
AcDbLine
 10
52.279639696
 20
835.9975323161
 30
0.0
 11
52.279639696
 21
1.3443147492
 31
0.0
  0
LINE
  5
386
330
1F
100
AcDbEntity
  8
AM_0
100
AcDbLine
 10
52.279639696
 20
1.3443147492
 30
0.0
 11
1236.6609933117
 21
1.3443147492
 31
0.0
  0
INSERT
  5
387
330
1F
100
AcDbEntity
  8
0
  6
Continuous
 62
     7
100
AcDbBlockReference
 66
     1
  2
ﾌﾞﾛｯｸ10
 10
886.6040737948
 20
1.3443034861
 30
0.0
  0
ATTRIB
  5
388
330
387
100
AcDbEntity
  8
SLD-0
 62
   179
100
AcDbText
 10
1014.1942943676
 20
33.4492564689
 30
0.0
 40
6.9984
  1

 41
0.7
  7
SLDTEXTSTYLE0
 11
1014.1942943676
 21
29.8292095397
 31
0.0
100
AcDbAttribute
  2
GEN-TITLE-SCA
 70
     0
 74
     1
  0
ATTRIB
  5
389
330
387
100
AcDbEntity
  8
SLD-0
 62
   179
100
AcDbText
 10
974.3709262046
 20
7.1608961005
 30
0.0
 40
4.32
  1

 41
0.7
  7
SLDTEXTSTYLE0
 11
974.3709262046
 21
4.9262992307
 31
0.0
100
AcDbAttribute
  2
GEN-TITLE-DGND
 70
     0
 74
     1
  0
ATTRIB
  5
38A
330
387
100
AcDbEntity
  8
SLD-0
 62
   179
100
AcDbText
 10
949.6039485656
 20
7.1608961005
 30
0.0
 40
4.32
  1

 41
0.7
  7
SLDTEXTSTYLE0
 11
949.6039485656
 21
4.9262992307
 31
0.0
100
AcDbAttribute
  2
GEN-TITLE-DWGD
 70
     0
 74
     1
  0
ATTRIB
  5
38B
330
387
100
AcDbEntity
  8
SLD-0
 62
   179
100
AcDbText
 10
924.8426373107
 20
7.1608961005
 30
0.0
 40
4.32
  1

 41
0.7
  7
SLDTEXTSTYLE0
 11
924.8426373107
 21
4.9262992307
 31
0.0
100
AcDbAttribute
  2
GEN-TITLE-CHKD
 70
     0
 74
     1
  0
ATTRIB
  5
38C
330
387
100
AcDbEntity
  8
SLD-0
 62
   179
100
AcDbText
 10
899.8603088711
 20
7.1608961005
 30
0.0
 40
4.32
  1

 41
0.7
  7
SLDTEXTSTYLE0
 11
899.8603088711
 21
4.9262992307
 31
0.0
100
AcDbAttribute
  2
GEN-TITLE-APPD
 70
     0
 74
     1
  0
ATTRIB
  5
38D
330
387
100
AcDbEntity
  8
SLD-0
 62
   179
100
AcDbText
 10
1183.4027233774
 20
38.9238807098
 30
0.0
 40
6.9984
  1

 41
0.7
  7
SLDTEXTSTYLE0
 11
1183.4027233774
 21
35.3038337807
 31
0.0
100
AcDbAttribute
  2
GEN-TITLE-NR
 70
     0
 74
     1
  0
ATTRIB
  5
38E
330
387
100
AcDbEntity
  8
SLD-0
 62
   179
100
AcDbText
 10
1068.456207126
 20
33.4492564689
 30
0.0
 40
6.9984
  1

 41
0.7
  7
SLDTEXTSTYLE0
 11
1068.456207126
 21
29.8292095397
 31
0.0
100
AcDbAttribute
  2
GEN-TITLE-DAT
 70
     0
 74
     1
  0
ATTRIB
  5
38F
330
387
100
AcDbEntity
  8
SLD-0
 62
   179
100
AcDbText
 10
957.2069123579
 20
41.911757481
 30
0.0
 40
6.9984
  1

 41
0.7
  7
SLDTEXTSTYLE0
 11
957.2069123579
 21
38.2917105518
 31
0.0
100
AcDbAttribute
  2
GEN-TITLE-UNIT
 70
     0
 74
     1
  0
ATTRIB
  5
390
330
387
100
AcDbEntity
  8
SLD-0
 62
   179
100
AcDbText
 10
958.121931612
 20
73.0111685496
 30
0.0
 40
6.9984
  1

 41
0.7
  7
SLDTEXTSTYLE0
 11
958.121931612
 21
69.3911216205
 31
0.0
100
AcDbAttribute
  2
GEN-TITLE-DESK1
 70
     0
 74
     1
  0
SEQEND
  5
391
330
387
100
AcDbEntity
  8
0
  6
Continuous
 62
     7
  0
INSERT
  5
39B
330
1F
100
AcDbEntity
  8
FORMAT
100
AcDbBlockReference
  2
SW_NOTE_0_9
 10
776.1150907689
 20
800.9406806826
 30
0.0
  0
MTEXT
  5
39C
330
1F
100
AcDbEntity
  8
FORMAT
100
AcDbMText
 10
81.6663165665
 20
813.1967255163
 30
0.0
 40
10.5
 41
0.0
 71
     1
 72
     1
  1
カメラスタンドアタッチメント（本体）
  7
SLDTEXTSTYLE0
 73
     1
 44
1.0
  0
MTEXT
  5
39D
330
1F
100
AcDbEntity
  8
FORMAT
100
AcDbMText
 10
81.6663165665
 20
358.9950307087
 30
0.0
 40
10.5
 41
0.0
 71
     1
 72
     1
  1
受金具Ａ
  7
SLDTEXTSTYLE0
 73
     1
 44
1.0
  0
MTEXT
  5
39E
330
1F
100
AcDbEntity
  8
FORMAT
100
AcDbMText
 10
493.3464429483
 20
358.9950307087
 30
0.0
 40
10.5
 41
0.0
 71
     1
 72
     1
  1
受金具Ｂ
  7
SLDTEXTSTYLE0
 73
     1
 44
1.0
  0
MTEXT
  5
39F
330
1F
100
AcDbEntity
  8
AM_0
100
AcDbMText
 10
953.8584779051
 20
80.7064814999
 30
0.0
 40
6.35
 41
0.0
 71
     2
 72
     1
  1
QP-PLS01
  7
SLDTEXTSTYLE0
 73
     1
 44
1.0
  0
MTEXT
  5
3A0
330
1F
100
AcDbEntity
  8
AM_0
100
AcDbMText
 10
951.8693008832
 20
49.5957912817
 30
0.0
 40
6.35
 41
0.0
 71
     2
 72
     1
  1
ｶﾒﾗｽﾀﾝﾄﾞｱﾀｯﾁﾒﾝﾄ
  7
SLDTEXTSTYLE0
 73
     1
 44
1.0
  0
MTEXT
  5
3A1
330
1F
100
AcDbEntity
  8
AM_0
100
AcDbMText
 10
948.2629019958
 20
13.4079038778
 30
0.0
 40
4.7625
 41
0.0
 71
     2
 72
     1
  1
Y.T
  7
SLDTEXTSTYLE0
 73
     1
 44
1.0
  0
MTEXT
  5
3A2
330
1F
100
AcDbEntity
  8
AM_0
100
AcDbMText
 10
973.1290581937
 20
13.4079038778
 30
0.0
 40
4.7625
 41
0.0
 71
     2
 72
     1
  1
Y.T
  7
SLDTEXTSTYLE0
 73
     1
 44
1.0
  0
MTEXT
  5
3A3
330
1F
100
AcDbEntity
  8
AM_0
100
AcDbMText
 10
1066.1724441688
 20
40.4504609229
 30
0.0
 40
4.7625
 41
0.0
 71
     2
 72
     1
  1
2020/03/24
  7
SLDTEXTSTYLE0
 73
     1
 44
1.0
  0
MTEXT
  5
3A4
330
1F
100
AcDbEntity
  8
AM_0
100
AcDbMText
 10
1010.9155850829
 20
40.4504609229
 30
0.0
 40
4.7625
 41
0.0
 71
     2
 72
     1
  1
1:2
  7
SLDTEXTSTYLE0
 73
     1
 44
1.0
  0
MTEXT
  5
3A5
330
1F
100
AcDbEntity
  8
AM_0
100
AcDbMText
 10
1183.775671323
 20
46.7689398375
 30
0.0
 40
6.35
 41
0.0
 71
     2
 72
     1
  1
SA-1
  7
SLDTEXTSTYLE0
 73
     1
 44
1.0
  0
MTEXT
  5
3A7
330
1F
100
AcDbEntity
  8
CSLAYER1
100
AcDbMText
 10
992.1079883838
 20
11.3747653117
 30
0.0
 40
4.7625
 41
0.0
 71
     1
 72
     1
  1
HAYAMI INDUSTRY CO.,LTD.
  7
SLDTEXTSTYLE1
 73
     1
 44
1.0
  0
LINE
  5
3A8
330
1F
100
AcDbEntity
  8
0
  6
Continuous
 62
     7
370
    25
100
AcDbLine
 10
286.799684757
 20
577.0344754328
 30
0.0
 11
256.799684757
 21
577.0344754328
 31
0.0
  0
LINE
  5
3A9
330
1F
100
AcDbEntity
  8
0
  6
Continuous
 62
     7
370
    25
100
AcDbLine
 10
376.799684757
 20
577.0344754328
 30
0.0
 11
346.799684757
 21
577.0344754328
 31
0.0
  0
LINE
  5
3AA
330
1F
100
AcDbEntity
  8
0
  6
Continuous
 62
     7
370
    25
100
AcDbLine
 10
286.799684757
 20
577.0344754328
 30
0.0
 11
286.799684757
 21
575.3844754328
 31
0.0
  0
LINE
  5
3AB
330
1F
100
AcDbEntity
  8
0
  6
Continuous
 62
     7
370
    25
100
AcDbLine
 10
256.799684757
 20
575.3844754328
 30
0.0
 11
286.799684757
 21
575.3844754328
 31
0.0
  0
LINE
  5
3AC
330
1F
100
AcDbEntity
  8
0
  6
Continuous
 62
     7
370
    25
100
AcDbLine
 10
256.799684757
 20
575.3844754328
 30
0.0
 11
256.799684757
 21
577.0344754328
 31
0.0
  0
LINE
  5
3AD
330
1F
100
AcDbEntity
  8
0
  6
Continuous
 62
     7
370
    25
100
AcDbLine
 10
286.799684757
 20
575.3844754328
 30
0.0
 11
286.799684757
 21
567.3844754328
 31
0.0
  0
ARC
  5
3AE
330
1F
100
AcDbEntity
  8
0
  6
Continuous
 62
     7
370
    25
100
AcDbCircle
 10
284.799684757
 20
567.3844754328
 30
0.0
 40
2.0
100
AcDbArc
 50
270.0
 51
0.0
  0
LINE
  5
3AF
330
1F
100
AcDbEntity
  8
0
  6
Continuous
 62
     7
370
    25
100
AcDbLine
 10
284.799684757
 20
565.3844754328
 30
0.0
 11
258.799684757
 21
565.3844754328
 31
0.0
  0
LINE
  5
3B0
330
1F
100
AcDbEntity
  8
0
  6
Continuous
 62
     7
370
    25
100
AcDbLine
 10
256.799684757
 20
567.3844754328
 30
0.0
 11
256.799684757
 21
575.3844754328
 31
0.0
  0
ARC
  5
3B1
330
1F
100
AcDbEntity
  8
0
  6
Continuous
 62
     7
370
    25
100
AcDbCircle
 10
258.799684757
 20
567.3844754328
 30
0.0
 40
2.0
100
AcDbArc
 50
180.0
 51
270.0
  0
ARC
  5
3B2
330
1F
100
AcDbEntity
  8
0
  6
Continuous
 62
     7
370
    25
100
AcDbCircle
 10
374.799684757
 20
567.3844754328
 30
0.0
 40
2.0
100
AcDbArc
 50
270.0
 51
0.0
  0
LINE
  5
3B3
330
1F
100
AcDbEntity
  8
0
  6
Continuous
 62
     7
370
    25
100
AcDbLine
 10
348.799684757
 20
565.3844754328
 30
0.0
 11
374.799684757
 21
565.3844754328
 31
0.0
  0
LINE
  5
3B4
330
1F
100
AcDbEntity
  8
0
  6
Continuous
 62
     7
370
    25
100
AcDbLine
 10
346.799684757
 20
575.3844754328
 30
0.0
 11
346.799684757
 21
567.3844754328
 31
0.0
  0
LINE
  5
3B5
330
1F
100
AcDbEntity
  8
0
  6
Continuous
 62
     7
370
    25
100
AcDbLine
 10
376.799684757
 20
575.3844754328
 30
0.0
 11
346.799684757
 21
575.3844754328
 31
0.0
  0
LINE
  5
3B6
330
1F
100
AcDbEntity
  8
0
  6
Continuous
 62
     7
370
    25
100
AcDbLine
 10
376.799684757
 20
567.3844754328
 30
0.0
 11
376.799684757
 21
575.3844754328
 31
0.0
  0
ARC
  5
3B7
330
1F
100
AcDbEntity
  8
0
  6
Continuous
 62
     7
370
    25
100
AcDbCircle
 10
348.799684757
 20
567.3844754328
 30
0.0
 40
2.0
100
AcDbArc
 50
180.0
 51
270.0
  0
LINE
  5
3B8
330
1F
100
AcDbEntity
  8
0
  6
Continuous
 62
     7
370
    25
100
AcDbLine
 10
376.799684757
 20
575.3844754328
 30
0.0
 11
376.799684757
 21
577.0344754328
 31
0.0
  0
LINE
  5
3B9
330
1F
100
AcDbEntity
  8
0
  6
Continuous
 62
     7
370
    25
100
AcDbLine
 10
346.799684757
 20
577.0344754328
 30
0.0
 11
346.799684757
 21
575.3844754328
 31
0.0
  0
LINE
  5
3BA
330
1F
100
AcDbEntity
  8
0
  6
Continuous
 62
     7
370
    25
100
AcDbLine
 10
206.799684757
 20
575.3844754328
 30
0.0
 11
206.799684757
 21
497.5844754328
 31
0.0
  0
LINE
  5
3BB
330
1F
100
AcDbEntity
  8
0
  6
Continuous
 62
     7
370
    25
100
AcDbLine
 10
208.599684757
 20
575.3844754328
 30
0.0
 11
206.799684757
 21
575.3844754328
 31
0.0
  0
LINE
  5
3BC
330
1F
100
AcDbEntity
  8
0
  6
Continuous
 62
     7
370
    25
100
AcDbLine
 10
208.599684757
 20
575.3844754328
 30
0.0
 11
208.599684757
 21
497.5844754328
 31
0.0
  0
LINE
  5
3BD
330
1F
100
AcDbEntity
  8
0
  6
Continuous
 62
     7
370
    25
100
AcDbLine
 10
208.599684757
 20
497.5844754328
 30
0.0
 11
206.799684757
 21
497.5844754328
 31
0.0
  0
CIRCLE
  5
3BE
330
1F
100
AcDbEntity
  8
0
  6
Continuous
 62
     7
370
    25
100
AcDbCircle
 10
386.799684757
 20
554.3844754328
 30
0.0
 40
2.000000000000057
  0
CIRCLE
  5
3BF
330
1F
100
AcDbEntity
  8
0
  6
Continuous
 62
     7
370
    25
100
AcDbCircle
 10
386.799684757
 20
569.3844754328
 30
0.0
 40
2.000000000000057
  0
CIRCLE
  5
3C0
330
1F
100
AcDbEntity
  8
0
  6
Continuous
 62
     7
370
    25
100
AcDbCircle
 10
356.799684757
 20
548.3844754328
 30
0.0
 40
2.0
  0
CIRCLE
  5
3C1
330
1F
100
AcDbEntity
  8
0
  6
Continuous
 62
     7
370
    25
100
AcDbCircle
 10
246.799684757
 20
554.3844754328
 30
0.0
 40
2.0
  0
CIRCLE
  5
3C2
330
1F
100
AcDbEntity
  8
0
  6
Continuous
 62
     7
370
    25
100
AcDbCircle
 10
246.799684757
 20
569.3844754328
 30
0.0
 40
2.0
  0
CIRCLE
  5
3C3
330
1F
100
AcDbEntity
  8
0
  6
Continuous
 62
     7
370
    25
100
AcDbCircle
 10
276.799684757
 20
548.3844754328
 30
0.0
 40
2.0
  0
LINE
  5
3C4
330
1F
100
AcDbEntity
  8
0
  6
Continuous
 62
     7
370
    25
100
AcDbLine
 10
424.599684757
 20
497.1844754328
 30
0.0
 11
424.599684757
 21
497.5844754328
 31
0.0
  0
LINE
  5
3C5
330
1F
100
AcDbEntity
  8
0
  6
Continuous
 62
     7
370
    25
100
AcDbLine
 10
424.599684757
 20
497.1844754328
 30
0.0
 11
208.999684757
 21
497.1844754328
 31
0.0
  0
LINE
  5
3C6
330
1F
100
AcDbEntity
  8
0
  6
Continuous
 62
     7
370
    25
100
AcDbLine
 10
208.999684757
 20
497.1844754328
 30
0.0
 11
208.999684757
 21
497.5844754328
 31
0.0
  0
LINE
  5
3C7
330
1F
100
AcDbEntity
  8
0
  6
Continuous
 62
     7
370
    25
100
AcDbLine
 10
208.999684757
 20
497.5844754328
 30
0.0
 11
208.599684757
 21
497.5844754328
 31
0.0
  0
LINE
  5
3C8
330
1F
100
AcDbEntity
  8
0
  6
Continuous
 62
     7
370
    25
100
AcDbLine
 10
256.799684757
 20
575.3844754328
 30
0.0
 11
208.599684757
 21
575.3844754328
 31
0.0
  0
LINE
  5
3C9
330
1F
100
AcDbEntity
  8
0
  6
Continuous
 62
     7
370
    25
100
AcDbLine
 10
286.799684757
 20
560.3844754328
 30
0.0
 11
286.799684757
 21
567.3844754328
 31
0.0
  0
ARC
  5
3CA
330
1F
100
AcDbEntity
  8
0
  6
Continuous
 62
     7
370
    25
100
AcDbCircle
 10
291.799684757
 20
560.3844754328
 30
0.0
 40
5.0
100
AcDbArc
 50
180.0
 51
270.0
  0
LINE
  5
3CB
330
1F
100
AcDbEntity
  8
0
  6
Continuous
 62
     7
370
    25
100
AcDbLine
 10
341.799684757
 20
555.3844754328
 30
0.0
 11
291.799684757
 21
555.3844754328
 31
0.0
  0
ARC
  5
3CC
330
1F
100
AcDbEntity
  8
0
  6
Continuous
 62
     7
370
    25
100
AcDbCircle
 10
341.799684757
 20
560.3844754328
 30
0.0
 40
5.0
100
AcDbArc
 50
270.0
 51
0.0
  0
LINE
  5
3CD
330
1F
100
AcDbEntity
  8
0
  6
Continuous
 62
     7
370
    25
100
AcDbLine
 10
346.799684757
 20
560.3844754328
 30
0.0
 11
346.799684757
 21
567.3844754328
 31
0.0
  0
LINE
  5
3CE
330
1F
100
AcDbEntity
  8
0
  6
Continuous
 62
     7
370
    25
100
AcDbLine
 10
376.799684757
 20
575.3844754328
 30
0.0
 11
424.999684757
 21
575.3844754328
 31
0.0
  0
LINE
  5
3CF
330
1F
100
AcDbEntity
  8
0
  6
Continuous
 62
     7
370
    25
100
AcDbLine
 10
424.999684757
 20
575.3844754328
 30
0.0
 11
424.999684757
 21
497.5844754328
 31
0.0
  0
LINE
  5
3D0
330
1F
100
AcDbEntity
  8
0
  6
Continuous
 62
     7
370
    25
100
AcDbLine
 10
424.599684757
 20
497.5844754328
 30
0.0
 11
424.999684757
 21
497.5844754328
 31
0.0
  0
CIRCLE
  5
3D1
330
1F
100
AcDbEntity
  8
0
  6
Continuous
 62
     7
370
    25
100
AcDbCircle
 10
276.799684757
 20
523.3844754328
 30
0.0
 40
2.0
  0
CIRCLE
  5
3D2
330
1F
100
AcDbEntity
  8
0
  6
Continuous
 62
     7
370
    25
100
AcDbCircle
 10
356.799684757
 20
523.3844754328
 30
0.0
 40
2.0
  0
LINE
  5
3D3
330
1F
100
AcDbEntity
  8
0
  6
Continuous
 62
     7
370
    25
100
AcDbLine
 10
426.799684757
 20
575.3844754328
 30
0.0
 11
426.799684757
 21
497.5844754328
 31
0.0
  0
LINE
  5
3D4
330
1F
100
AcDbEntity
  8
0
  6
Continuous
 62
     7
370
    25
100
AcDbLine
 10
424.999684757
 20
497.5844754328
 30
0.0
 11
426.799684757
 21
497.5844754328
 31
0.0
  0
LINE
  5
3D5
330
1F
100
AcDbEntity
  8
0
  6
Continuous
 62
     7
370
    25
100
AcDbLine
 10
424.999684757
 20
575.3844754328
 30
0.0
 11
426.799684757
 21
575.3844754328
 31
0.0
  0
LINE
  5
3D6
330
1F
100
AcDbEntity
  8
0
  6
Continuous
 62
     7
370
    25
100
AcDbLine
 10
424.599684757
 20
495.3844754328
 30
0.0
 11
208.999684757
 21
495.3844754328
 31
0.0
  0
LINE
  5
3D7
330
1F
100
AcDbEntity
  8
0
  6
Continuous
 62
     7
370
    25
100
AcDbLine
 10
424.599684757
 20
497.1844754328
 30
0.0
 11
424.599684757
 21
495.3844754328
 31
0.0
  0
LINE
  5
3D8
330
1F
100
AcDbEntity
  8
0
  6
Continuous
 62
     7
370
    25
100
AcDbLine
 10
208.999684757
 20
497.1844754328
 30
0.0
 11
208.999684757
 21
495.3844754328
 31
0.0
  0
LINE
  5
3D9
330
1F
100
AcDbEntity
  8
0
  6
Continuous
 62
     7
370
    25
100
AcDbLine
 10
206.799684757
 20
496.3844754328
 30
0.0
 11
208.399684757
 21
496.3844754328
 31
0.0
  0
LINE
  5
3DA
330
1F
100
AcDbEntity
  8
0
  6
Continuous
 62
     7
370
    25
100
AcDbLine
 10
208.399684757
 20
496.3844754328
 30
0.0
 11
208.399684757
 21
497.5844754328
 31
0.0
  0
LINE
  5
3DB
330
1F
100
AcDbEntity
  8
0
  6
Continuous
 62
     7
370
    25
100
AcDbLine
 10
206.799684757
 20
496.3844754328
 30
0.0
 11
206.799684757
 21
497.5844754328
 31
0.0
  0
LINE
  5
3DC
330
1F
100
AcDbEntity
  8
0
  6
Continuous
 62
     7
370
    25
100
AcDbLine
 10
208.399684757
 20
495.3844754328
 30
0.0
 11
206.799684757
 21
495.3844754328
 31
0.0
  0
LINE
  5
3DD
330
1F
100
AcDbEntity
  8
0
  6
Continuous
 62
     7
370
    25
100
AcDbLine
 10
208.399684757
 20
496.3844754328
 30
0.0
 11
208.399684757
 21
495.3844754328
 31
0.0
  0
LINE
  5
3DE
330
1F
100
AcDbEntity
  8
0
  6
Continuous
 62
     7
370
    25
100
AcDbLine
 10
206.799684757
 20
495.3844754328
 30
0.0
 11
206.799684757
 21
496.3844754328
 31
0.0
  0
LINE
  5
3DF
330
1F
100
AcDbEntity
  8
0
  6
Continuous
 62
     7
370
    25
100
AcDbLine
 10
426.799684757
 20
496.3844754328
 30
0.0
 11
425.199684757
 21
496.3844754328
 31
0.0
  0
LINE
  5
3E0
330
1F
100
AcDbEntity
  8
0
  6
Continuous
 62
     7
370
    25
100
AcDbLine
 10
425.199684757
 20
495.3844754328
 30
0.0
 11
426.799684757
 21
495.3844754328
 31
0.0
  0
LINE
  5
3E1
330
1F
100
AcDbEntity
  8
0
  6
Continuous
 62
     7
370
    25
100
AcDbLine
 10
426.799684757
 20
495.3844754328
 30
0.0
 11
426.799684757
 21
496.3844754328
 31
0.0
  0
LINE
  5
3E2
330
1F
100
AcDbEntity
  8
0
  6
Continuous
 62
     7
370
    25
100
AcDbLine
 10
425.199684757
 20
496.3844754328
 30
0.0
 11
425.199684757
 21
495.3844754328
 31
0.0
  0
LINE
  5
3E3
330
1F
100
AcDbEntity
  8
0
  6
Continuous
 62
     7
370
    25
100
AcDbLine
 10
426.799684757
 20
496.3844754328
 30
0.0
 11
426.799684757
 21
497.5844754328
 31
0.0
  0
LINE
  5
3E4
330
1F
100
AcDbEntity
  8
0
  6
Continuous
 62
     7
370
    25
100
AcDbLine
 10
425.199684757
 20
496.3844754328
 30
0.0
 11
425.199684757
 21
497.5844754328
 31
0.0
  0
LINE
  5
3E5
330
1F
100
AcDbEntity
  8
0
  6
Continuous
 62
     7
370
    25
100
AcDbLine
 10
208.399684757
 20
495.3844754328
 30
0.0
 11
208.599684757
 21
495.3844754328
 31
0.0
  0
LINE
  5
3E6
330
1F
100
AcDbEntity
  8
0
  6
Continuous
 62
     7
370
    25
100
AcDbLine
 10
425.199684757
 20
495.3844754328
 30
0.0
 11
424.999684757
 21
495.3844754328
 31
0.0
  0
LINE
  5
3E7
330
1F
100
AcDbEntity
  8
0
  6
Continuous
 62
     7
370
    25
100
AcDbLine
 10
208.599684757
 20
495.3844754328
 30
0.0
 11
208.999684757
 21
495.3844754328
 31
0.0
  0
LINE
  5
3E8
330
1F
100
AcDbEntity
  8
0
  6
Continuous
 62
     7
370
    25
100
AcDbLine
 10
424.999684757
 20
495.3844754328
 30
0.0
 11
424.599684757
 21
495.3844754328
 31
0.0
  0
LINE
  5
3E9
330
1F
100
AcDbEntity
  8
0
  6
Continuous
 62
     8
370
    25
100
AcDbLine
 10
208.599684757
 20
497.5844754328
 30
0.0
 11
208.599684757
 21
495.3844754328
 31
0.0
  0
LINE
  5
3EA
330
1F
100
AcDbEntity
  8
0
  6
Continuous
 62
     8
370
    25
100
AcDbLine
 10
424.999684757
 20
497.5844754328
 30
0.0
 11
424.999684757
 21
495.3844754328
 31
0.0
  0
DIMENSION
  5
3EB
330
1F
100
AcDbEntity
  8
FORMAT
100
AcDbDimension
  2
_D
 10
426.799684757
 20
429.3844754328
 30
0.0
 11
320.1826411783
 21
429.3844754328
 31
0.0
 70
   160
  1
<>
 71
     2
 42
-1.0
  3
SLDDIMSTYLE0
100
AcDbAlignedDimension
 13
206.799684757
 23
495.3844754328
 33
0.0
 14
426.799684757
 24
495.3844754328
 34
0.0
100
AcDbRotatedDimension
  0
DIMENSION
  5
3FB
330
1F
100
AcDbEntity
  8
FORMAT
100
AcDbDimension
  2
_D_1
 10
140.799684757
 20
495.3844754328
 30
0.0
 11
140.799684757
 21
533.8753241866
 31
0.0
 70
   160
  1
<>
 71
     2
 42
-1.0
  3
SLDDIMSTYLE1
100
AcDbAlignedDimension
 13
256.799684757
 23
577.0344754328
 33
0.0
 14
208.999684757
 24
495.3844754328
 34
0.0
 50
90.0
100
AcDbRotatedDimension
  0
DIMENSION
  5
406
330
1F
100
AcDbEntity
  8
FORMAT
100
AcDbDimension
  2
_D_2
 10
346.799684757
 20
607.0344754328
 30
0.0
 11
316.1027351475
 21
607.0344754328
 31
0.0
 70
   160
  1
<>
 71
     2
 42
-1.0
  3
SLDDIMSTYLE0
100
AcDbAlignedDimension
 13
286.799684757
 23
577.0344754328
 33
0.0
 14
346.799684757
 24
577.0344754328
 34
0.0
100
AcDbRotatedDimension
  0
DIMENSION
  5
410
330
1F
100
AcDbEntity
  8
FORMAT
100
AcDbDimension
  2
_D_3
 10
322.9071479377
 20
555.3844754328
 30
0.0
 11
322.9071479377
 21
568.2402396163
 31
0.0
 70
   160
  1
<>
 71
     2
 42
-1.0
  3
SLDDIMSTYLE0
100
AcDbAlignedDimension
 13
346.799684757
 23
575.3844754328
 33
0.0
 14
341.799684757
 24
555.3844754328
 34
0.0
 50
90.0
100
AcDbRotatedDimension
  0
INSERT
  5
424
330
1F
100
AcDbEntity
  8
FORMAT
100
AcDbBlockReference
  2
SW_CENTERMARKSYMBOL_0
 10
246.799684757
 20
569.3844754328
 30
0.0
  0
INSERT
  5
430
330
1F
100
AcDbEntity
  8
FORMAT
100
AcDbBlockReference
  2
SW_CENTERMARKSYMBOL_1
 10
246.799684757
 20
554.3844754328
 30
0.0
  0
INSERT
  5
43C
330
1F
100
AcDbEntity
  8
FORMAT
100
AcDbBlockReference
  2
SW_CENTERMARKSYMBOL_2
 10
276.799684757
 20
548.3844754328
 30
0.0
  0
INSERT
  5
448
330
1F
100
AcDbEntity
  8
FORMAT
100
AcDbBlockReference
  2
SW_CENTERMARKSYMBOL_3
 10
276.799684757
 20
523.3844754328
 30
0.0
  0
INSERT
  5
454
330
1F
100
AcDbEntity
  8
FORMAT
100
AcDbBlockReference
  2
SW_CENTERMARKSYMBOL_4
 10
356.799684757
 20
523.3844754328
 30
0.0
  0
INSERT
  5
460
330
1F
100
AcDbEntity
  8
FORMAT
100
AcDbBlockReference
  2
SW_CENTERMARKSYMBOL_5
 10
356.799684757
 20
548.3844754328
 30
0.0
  0
INSERT
  5
46C
330
1F
100
AcDbEntity
  8
FORMAT
100
AcDbBlockReference
  2
SW_CENTERMARKSYMBOL_6
 10
386.799684757
 20
554.3844754328
 30
0.0
  0
INSERT
  5
478
330
1F
100
AcDbEntity
  8
FORMAT
100
AcDbBlockReference
  2
SW_CENTERMARKSYMBOL_7
 10
386.799684757
 20
569.3844754328
 30
0.0
  0
LINE
  5
479
330
1F
100
AcDbEntity
  8
0
  6
Continuous
 62
     7
370
    25
100
AcDbLine
 10
376.799684757
 20
701.3175893443
 30
0.0
 11
346.799684757
 21
701.3175893443
 31
0.0
  0
LINE
  5
47A
330
1F
100
AcDbEntity
  8
0
  6
Continuous
 62
     7
370
    25
100
AcDbLine
 10
346.799684757
 20
704.6175893443
 30
0.0
 11
376.799684757
 21
704.6175893443
 31
0.0
  0
LINE
  5
47B
330
1F
100
AcDbEntity
  8
0
  6
Continuous
 62
     7
370
    25
100
AcDbLine
 10
376.799684757
 20
701.3175893443
 30
0.0
 11
376.799684757
 21
704.6175893443
 31
0.0
  0
LINE
  5
47C
330
1F
100
AcDbEntity
  8
0
  6
Continuous
 62
     7
370
    25
100
AcDbLine
 10
346.799684757
 20
704.6175893443
 30
0.0
 11
346.799684757
 21
701.3175893443
 31
0.0
  0
LINE
  5
47D
330
1F
100
AcDbEntity
  8
0
  6
Continuous
 62
     7
370
    25
100
AcDbLine
 10
286.799684757
 20
704.6175893443
 30
0.0
 11
286.799684757
 21
701.3175893443
 31
0.0
  0
LINE
  5
47E
330
1F
100
AcDbEntity
  8
0
  6
Continuous
 62
     7
370
    25
100
AcDbLine
 10
256.799684757
 20
701.3175893443
 30
0.0
 11
286.799684757
 21
701.3175893443
 31
0.0
  0
LINE
  5
47F
330
1F
100
AcDbEntity
  8
0
  6
Continuous
 62
     7
370
    25
100
AcDbLine
 10
256.799684757
 20
701.3175893443
 30
0.0
 11
256.799684757
 21
704.6175893443
 31
0.0
  0
LINE
  5
480
330
1F
100
AcDbEntity
  8
0
  6
Continuous
 62
     7
370
    25
100
AcDbLine
 10
286.799684757
 20
704.6175893443
 30
0.0
 11
256.799684757
 21
704.6175893443
 31
0.0
  0
LINE
  5
481
330
1F
100
AcDbEntity
  8
0
  6
Continuous
 62
     7
370
    25
100
AcDbLine
 10
208.599684757
 20
753.0175893443
 30
0.0
 11
208.599684757
 21
751.4175893443
 31
0.0
  0
LINE
  5
482
330
1F
100
AcDbEntity
  8
0
  6
Continuous
 62
     7
370
    25
100
AcDbLine
 10
208.599684757
 20
753.0175893443
 30
0.0
 11
218.799684757
 21
753.0175893443
 31
0.0
  0
LINE
  5
483
330
1F
100
AcDbEntity
  8
0
  6
Continuous
 62
     7
370
    25
100
AcDbLine
 10
218.799684757
 20
751.4175893443
 30
0.0
 11
218.799684757
 21
753.0175893443
 31
0.0
  0
LINE
  5
484
330
1F
100
AcDbEntity
  8
0
  6
Continuous
 62
     7
370
    25
100
AcDbLine
 10
208.599684757
 20
751.4175893443
 30
0.0
 11
218.799684757
 21
751.4175893443
 31
0.0
  0
LINE
  5
485
330
1F
100
AcDbEntity
  8
0
  6
Continuous
 62
     7
370
    25
100
AcDbLine
 10
414.799684757
 20
751.4175893443
 30
0.0
 11
414.799684757
 21
753.0175893443
 31
0.0
  0
LINE
  5
486
330
1F
100
AcDbEntity
  8
0
  6
Continuous
 62
     7
370
    25
100
AcDbLine
 10
411.799684757
 20
751.4175893443
 30
0.0
 11
414.799684757
 21
751.4175893443
 31
0.0
  0
LINE
  5
487
330
1F
100
AcDbEntity
  8
0
  6
Continuous
 62
     7
370
    25
100
AcDbLine
 10
411.799684757
 20
753.0175893443
 30
0.0
 11
411.799684757
 21
751.4175893443
 31
0.0
  0
LINE
  5
488
330
1F
100
AcDbEntity
  8
0
  6
Continuous
 62
     7
370
    25
100
AcDbLine
 10
414.799684757
 20
753.0175893443
 30
0.0
 11
411.799684757
 21
753.0175893443
 31
0.0
  0
LINE
  5
489
330
1F
100
AcDbEntity
  8
0
  6
Continuous
 62
     7
370
    25
100
AcDbLine
 10
221.799684757
 20
753.0175893443
 30
0.0
 11
221.799684757
 21
751.4175893443
 31
0.0
  0
LINE
  5
48A
330
1F
100
AcDbEntity
  8
0
  6
Continuous
 62
     7
370
    25
100
AcDbLine
 10
221.799684757
 20
751.4175893443
 30
0.0
 11
218.799684757
 21
751.4175893443
 31
0.0
  0
LINE
  5
48B
330
1F
100
AcDbEntity
  8
0
  6
Continuous
 62
     7
370
    25
100
AcDbLine
 10
218.799684757
 20
753.0175893443
 30
0.0
 11
221.799684757
 21
753.0175893443
 31
0.0
  0
LINE
  5
48C
330
1F
100
AcDbEntity
  8
0
  6
Continuous
 62
     7
370
    25
100
AcDbLine
 10
425.199684757
 20
751.2175893443
 30
0.0
 11
426.799684757
 21
751.2175893443
 31
0.0
  0
ARC
  5
48D
330
1F
100
AcDbEntity
  8
0
  6
Continuous
 62
     7
370
    25
100
AcDbCircle
 10
424.999684757
 20
751.2175893443
 30
0.0
 40
0.1999999999999886
100
AcDbArc
 50
0.0
 51
90.0
  0
LINE
  5
48E
330
1F
100
AcDbEntity
  8
0
  6
Continuous
 62
     7
370
    25
100
AcDbLine
 10
424.999684757
 20
753.0175893443
 30
0.0
 11
424.999684757
 21
751.4175893443
 31
0.0
  0
ARC
  5
48F
330
1F
100
AcDbEntity
  8
0
  6
Continuous
 62
     7
370
    25
100
AcDbCircle
 10
424.999684757
 20
751.2175893443
 30
0.0
 40
1.799999999999955
100
AcDbArc
 50
0.0
 51
90.0
  0
LINE
  5
490
330
1F
100
AcDbEntity
  8
0
  6
Continuous
 62
     7
370
    25
100
AcDbLine
 10
424.999684757
 20
751.4175893443
 30
0.0
 11
414.799684757
 21
751.4175893443
 31
0.0
  0
LINE
  5
491
330
1F
100
AcDbEntity
  8
0
  6
Continuous
 62
     7
370
    25
100
AcDbLine
 10
424.999684757
 20
753.0175893443
 30
0.0
 11
414.799684757
 21
753.0175893443
 31
0.0
  0
ARC
  5
492
330
1F
100
AcDbEntity
  8
0
  6
Continuous
 62
     7
370
    25
100
AcDbCircle
 10
208.599684757
 20
751.2175893443
 30
0.0
 40
0.2000000000000171
100
AcDbArc
 50
90.0
 51
180.0
  0
LINE
  5
493
330
1F
100
AcDbEntity
  8
0
  6
Continuous
 62
     7
370
    25
100
AcDbLine
 10
208.399684757
 20
751.2175893443
 30
0.0
 11
206.799684757
 21
751.2175893443
 31
0.0
  0
ARC
  5
494
330
1F
100
AcDbEntity
  8
0
  6
Continuous
 62
     7
370
    25
100
AcDbCircle
 10
208.599684757
 20
751.2175893443
 30
0.0
 40
1.800000000000011
100
AcDbArc
 50
90.0
 51
180.0
  0
LINE
  5
495
330
1F
100
AcDbEntity
  8
0
  6
Continuous
 62
     7
370
    25
100
AcDbLine
 10
208.399684757
 20
704.8175893443
 30
0.0
 11
208.399684757
 21
751.2175893443
 31
0.0
  0
LINE
  5
496
330
1F
100
AcDbEntity
  8
0
  6
Continuous
 62
     7
370
    25
100
AcDbLine
 10
206.799684757
 20
704.8175893443
 30
0.0
 11
208.399684757
 21
704.8175893443
 31
0.0
  0
LINE
  5
497
330
1F
100
AcDbEntity
  8
0
  6
Continuous
 62
     7
370
    25
100
AcDbLine
 10
206.799684757
 20
704.8175893443
 30
0.0
 11
206.799684757
 21
751.2175893443
 31
0.0
  0
LINE
  5
498
330
1F
100
AcDbEntity
  8
0
  6
Continuous
 62
     7
370
    25
100
AcDbLine
 10
426.799684757
 20
704.8175893443
 30
0.0
 11
425.199684757
 21
704.8175893443
 31
0.0
  0
LINE
  5
499
330
1F
100
AcDbEntity
  8
0
  6
Continuous
 62
     7
370
    25
100
AcDbLine
 10
425.199684757
 20
704.8175893443
 30
0.0
 11
425.199684757
 21
751.2175893443
 31
0.0
  0
LINE
  5
49A
330
1F
100
AcDbEntity
  8
0
  6
Continuous
 62
     7
370
    25
100
AcDbLine
 10
426.799684757
 20
704.8175893443
 30
0.0
 11
426.799684757
 21
751.2175893443
 31
0.0
  0
LINE
  5
49B
330
1F
100
AcDbEntity
  8
0
  6
Continuous
 62
     7
370
    25
100
AcDbLine
 10
376.799684757
 20
704.6175893443
 30
0.0
 11
424.999684757
 21
704.6175893443
 31
0.0
  0
LINE
  5
49C
330
1F
100
AcDbEntity
  8
0
  6
Continuous
 62
     7
370
    25
100
AcDbLine
 10
424.999684757
 20
704.6175893443
 30
0.0
 11
424.999684757
 21
703.0175893443
 31
0.0
  0
LINE
  5
49D
330
1F
100
AcDbEntity
  8
0
  6
Continuous
 62
     7
370
    25
100
AcDbLine
 10
376.799684757
 20
703.0175893443
 30
0.0
 11
424.999684757
 21
703.0175893443
 31
0.0
  0
LINE
  5
49E
330
1F
100
AcDbEntity
  8
0
  6
Continuous
 62
     7
370
    25
100
AcDbLine
 10
208.599684757
 20
704.6175893443
 30
0.0
 11
208.599684757
 21
703.0175893443
 31
0.0
  0
ARC
  5
49F
330
1F
100
AcDbEntity
  8
0
  6
Continuous
 62
     7
370
    25
100
AcDbCircle
 10
208.599684757
 20
704.8175893443
 30
0.0
 40
0.2000000000000455
100
AcDbArc
 50
180.0
 51
270.0
  0
ARC
  5
4A0
330
1F
100
AcDbEntity
  8
0
  6
Continuous
 62
     7
370
    25
100
AcDbCircle
 10
208.599684757
 20
704.8175893443
 30
0.0
 40
1.800000000000011
100
AcDbArc
 50
180.0
 51
270.0
  0
LINE
  5
4A1
330
1F
100
AcDbEntity
  8
0
  6
Continuous
 62
     7
370
    25
100
AcDbLine
 10
256.799684757
 20
704.6175893443
 30
0.0
 11
208.599684757
 21
704.6175893443
 31
0.0
  0
LINE
  5
4A2
330
1F
100
AcDbEntity
  8
0
  6
Continuous
 62
     7
370
    25
100
AcDbLine
 10
256.799684757
 20
703.0175893443
 30
0.0
 11
208.599684757
 21
703.0175893443
 31
0.0
  0
ARC
  5
4A3
330
1F
100
AcDbEntity
  8
0
  6
Continuous
 62
     7
370
    25
100
AcDbCircle
 10
424.999684757
 20
704.8175893443
 30
0.0
 40
0.2000000000000455
100
AcDbArc
 50
270.0
 51
0.0
  0
ARC
  5
4A4
330
1F
100
AcDbEntity
  8
0
  6
Continuous
 62
     7
370
    25
100
AcDbCircle
 10
424.999684757
 20
704.8175893443
 30
0.0
 40
1.800000000000068
100
AcDbArc
 50
270.0
 51
0.0
  0
LINE
  5
4A5
330
1F
100
AcDbEntity
  8
0
  6
Continuous
 62
     7
370
    25
100
AcDbLine
 10
341.799684757
 20
704.6175893443
 30
0.0
 11
341.799684757
 21
703.0175893443
 31
0.0
  0
LINE
  5
4A6
330
1F
100
AcDbEntity
  8
0
  6
Continuous
 62
     7
370
    25
100
AcDbLine
 10
341.799684757
 20
703.0175893443
 30
0.0
 11
346.799684757
 21
703.0175893443
 31
0.0
  0
LINE
  5
4A7
330
1F
100
AcDbEntity
  8
0
  6
Continuous
 62
     7
370
    25
100
AcDbLine
 10
346.799684757
 20
704.6175893443
 30
0.0
 11
341.799684757
 21
704.6175893443
 31
0.0
  0
LINE
  5
4A8
330
1F
100
AcDbEntity
  8
0
  6
Continuous
 62
     7
370
    25
100
AcDbLine
 10
291.799684757
 20
704.6175893443
 30
0.0
 11
291.799684757
 21
703.0175893443
 31
0.0
  0
LINE
  5
4A9
330
1F
100
AcDbEntity
  8
0
  6
Continuous
 62
     7
370
    25
100
AcDbLine
 10
291.799684757
 20
703.0175893443
 30
0.0
 11
286.799684757
 21
703.0175893443
 31
0.0
  0
LINE
  5
4AA
330
1F
100
AcDbEntity
  8
0
  6
Continuous
 62
     7
370
    25
100
AcDbLine
 10
286.799684757
 20
704.6175893443
 30
0.0
 11
291.799684757
 21
704.6175893443
 31
0.0
  0
LINE
  5
4AB
330
1F
100
AcDbEntity
  8
0
  6
Continuous
 62
     7
370
    25
100
AcDbLine
 10
341.799684757
 20
703.0175893443
 30
0.0
 11
291.799684757
 21
703.0175893443
 31
0.0
  0
LINE
  5
4AC
330
1F
100
AcDbEntity
  8
0
  6
Continuous
 62
     7
370
    25
100
AcDbLine
 10
341.799684757
 20
704.6175893443
 30
0.0
 11
291.799684757
 21
704.6175893443
 31
0.0
  0
LINE
  5
4AD
330
1F
100
AcDbEntity
  8
0
  6
Continuous
 62
     7
370
    25
100
AcDbLine
 10
289.299684757
 20
752.8175893443
 30
0.0
 11
289.299684757
 21
751.2175893443
 31
0.0
  0
LINE
  5
4AE
330
1F
100
AcDbEntity
  8
0
  6
Continuous
 62
     7
370
    25
100
AcDbLine
 10
289.299684757
 20
751.2175893443
 30
0.0
 11
284.299684757
 21
751.2175893443
 31
0.0
  0
LINE
  5
4AF
330
1F
100
AcDbEntity
  8
0
  6
Continuous
 62
     7
370
    25
100
AcDbLine
 10
284.299684757
 20
751.2175893443
 30
0.0
 11
284.299684757
 21
752.8175893443
 31
0.0
  0
LINE
  5
4B0
330
1F
100
AcDbEntity
  8
0
  6
Continuous
 62
     7
370
    25
100
AcDbLine
 10
284.299684757
 20
752.8175893443
 30
0.0
 11
289.299684757
 21
752.8175893443
 31
0.0
  0
LINE
  5
4B1
330
1F
100
AcDbEntity
  8
0
  6
Continuous
 62
     7
370
    25
100
AcDbLine
 10
344.299684757
 20
751.2175893443
 30
0.0
 11
344.299684757
 21
752.8175893443
 31
0.0
  0
LINE
  5
4B2
330
1F
100
AcDbEntity
  8
0
  6
Continuous
 62
     7
370
    25
100
AcDbLine
 10
344.299684757
 20
751.2175893443
 30
0.0
 11
289.299684757
 21
751.2175893443
 31
0.0
  0
LINE
  5
4B3
330
1F
100
AcDbEntity
  8
0
  6
Continuous
 62
     7
370
    25
100
AcDbLine
 10
344.299684757
 20
752.8175893443
 30
0.0
 11
289.299684757
 21
752.8175893443
 31
0.0
  0
LINE
  5
4B4
330
1F
100
AcDbEntity
  8
0
  6
Continuous
 62
     7
370
    25
100
AcDbLine
 10
349.299684757
 20
752.8175893443
 30
0.0
 11
349.299684757
 21
751.2175893443
 31
0.0
  0
LINE
  5
4B5
330
1F
100
AcDbEntity
  8
0
  6
Continuous
 62
     7
370
    25
100
AcDbLine
 10
349.299684757
 20
751.2175893443
 30
0.0
 11
344.299684757
 21
751.2175893443
 31
0.0
  0
LINE
  5
4B6
330
1F
100
AcDbEntity
  8
0
  6
Continuous
 62
     7
370
    25
100
AcDbLine
 10
344.299684757
 20
752.8175893443
 30
0.0
 11
349.299684757
 21
752.8175893443
 31
0.0
  0
LINE
  5
4B7
330
1F
100
AcDbEntity
  8
0
  6
Continuous
 62
     7
370
    25
100
AcDbLine
 10
349.299684757
 20
751.0175893443
 30
0.0
 11
284.299684757
 21
751.0175893443
 31
0.0
  0
LINE
  5
4B8
330
1F
100
AcDbEntity
  8
0
  6
Continuous
 62
     7
370
    25
100
AcDbLine
 10
349.299684757
 20
751.2175893443
 30
0.0
 11
349.299684757
 21
751.0175893443
 31
0.0
  0
LINE
  5
4B9
330
1F
100
AcDbEntity
  8
0
  6
Continuous
 62
     7
370
    25
100
AcDbLine
 10
284.299684757
 20
751.2175893443
 30
0.0
 11
284.299684757
 21
751.0175893443
 31
0.0
  0
LINE
  5
4BA
330
1F
100
AcDbEntity
  8
0
  6
Continuous
 62
     7
370
    25
100
AcDbLine
 10
424.599684757
 20
704.8175893443
 30
0.0
 11
208.999684757
 21
704.8175893443
 31
0.0
  0
LINE
  5
4BB
330
1F
100
AcDbEntity
  8
0
  6
Continuous
 62
     7
370
    25
100
AcDbLine
 10
424.599684757
 20
704.8175893443
 30
0.0
 11
424.599684757
 21
704.6175893443
 31
0.0
  0
LINE
  5
4BC
330
1F
100
AcDbEntity
  8
0
  6
Continuous
 62
     7
370
    25
100
AcDbLine
 10
208.999684757
 20
704.8175893443
 30
0.0
 11
208.999684757
 21
704.6175893443
 31
0.0
  0
CIRCLE
  5
4BD
330
1F
100
AcDbEntity
  8
0
  6
Continuous
 62
     7
370
    25
100
AcDbCircle
 10
416.799684757
 20
733.0175893443
 30
0.0
 40
1.5
  0
CIRCLE
  5
4BE
330
1F
100
AcDbEntity
  8
0
  6
Continuous
 62
     7
370
    25
100
AcDbCircle
 10
216.799684757
 20
733.0175893443
 30
0.0
 40
1.5
  0
CIRCLE
  5
4BF
330
1F
100
AcDbEntity
  8
0
  6
Continuous
 62
     7
370
    25
100
AcDbCircle
 10
316.799684757
 20
733.0175893443
 30
0.0
 40
4.0
  0
LINE
  5
4C0
330
1F
100
AcDbEntity
  8
0
  6
Continuous
 62
     7
370
    25
100
AcDbLine
 10
424.599684757
 20
751.0175893443
 30
0.0
 11
349.299684757
 21
751.0175893443
 31
0.0
  0
LINE
  5
4C1
330
1F
100
AcDbEntity
  8
0
  6
Continuous
 62
     7
370
    25
100
AcDbLine
 10
284.299684757
 20
751.0175893443
 30
0.0
 11
208.999684757
 21
751.0175893443
 31
0.0
  0
LINE
  5
4C2
330
1F
100
AcDbEntity
  8
0
  6
Continuous
 62
     7
370
    25
100
AcDbLine
 10
424.599684757
 20
751.0175893443
 30
0.0
 11
424.599684757
 21
704.8175893443
 31
0.0
  0
LINE
  5
4C3
330
1F
100
AcDbEntity
  8
0
  6
Continuous
 62
     7
370
    25
100
AcDbLine
 10
208.999684757
 20
751.0175893443
 30
0.0
 11
208.999684757
 21
704.8175893443
 31
0.0
  0
INSERT
  5
4CF
330
1F
100
AcDbEntity
  8
FORMAT
100
AcDbBlockReference
  2
SW_CENTERMARKSYMBOL_8
 10
316.799684757
 20
733.0175893443
 30
0.0
  0
INSERT
  5
4DB
330
1F
100
AcDbEntity
  8
FORMAT
100
AcDbBlockReference
  2
SW_CENTERMARKSYMBOL_9
 10
216.799684757
 20
733.0175893443
 30
0.0
  0
INSERT
  5
4E7
330
1F
100
AcDbEntity
  8
FORMAT
100
AcDbBlockReference
  2
SW_CENTERMARKSYMBOL_10
 10
416.799684757
 20
733.0175893443
 30
0.0
  0
ARC
  5
4E8
330
1F
100
AcDbEntity
  8
0
  6
Continuous
 62
     7
370
    25
100
AcDbCircle
 10
582.0486552211
 20
496.3844754328
 30
0.0
 40
1.0
100
AcDbArc
 50
180.0
 51
270.0
  0
LINE
  5
4E9
330
1F
100
AcDbEntity
  8
0
  6
Continuous
 62
     7
370
    25
100
AcDbLine
 10
581.0486552211
 20
496.3844754328
 30
0.0
 11
581.0486552211
 21
497.5844754328
 31
0.0
  0
LINE
  5
4EA
330
1F
100
AcDbEntity
  8
0
  6
Continuous
 62
     7
370
    25
100
AcDbLine
 10
580.6486552211
 20
497.5844754328
 30
0.0
 11
581.0486552211
 21
497.5844754328
 31
0.0
  0
LINE
  5
4EB
330
1F
100
AcDbEntity
  8
0
  6
Continuous
 62
     7
370
    25
100
AcDbLine
 10
580.6486552211
 20
575.3844754328
 30
0.0
 11
580.6486552211
 21
497.5844754328
 31
0.0
  0
LINE
  5
4EC
330
1F
100
AcDbEntity
  8
0
  6
Continuous
 62
     7
370
    25
100
AcDbLine
 10
580.6486552211
 20
575.3844754328
 30
0.0
 11
627.0486552211
 21
575.3844754328
 31
0.0
  0
LINE
  5
4ED
330
1F
100
AcDbEntity
  8
0
  6
Continuous
 62
     7
370
    25
100
AcDbLine
 10
627.0486552211
 20
575.3844754328
 30
0.0
 11
627.0486552211
 21
495.3844754328
 31
0.0
  0
LINE
  5
4EE
330
1F
100
AcDbEntity
  8
0
  6
Continuous
 62
     7
370
    25
100
AcDbLine
 10
582.0486552211
 20
495.3844754328
 30
0.0
 11
627.0486552211
 21
495.3844754328
 31
0.0
  0
LINE
  5
4EF
330
1F
100
AcDbEntity
  8
0
  6
Continuous
 62
     7
370
    25
100
AcDbLine
 10
628.8486552211
 20
575.3844754328
 30
0.0
 11
628.8486552211
 21
495.3844754328
 31
0.0
  0
LINE
  5
4F0
330
1F
100
AcDbEntity
  8
0
  6
Continuous
 62
     7
370
    25
100
AcDbLine
 10
627.0486552211
 20
575.3844754328
 30
0.0
 11
628.8486552211
 21
575.3844754328
 31
0.0
  0
LINE
  5
4F1
330
1F
100
AcDbEntity
  8
0
  6
Continuous
 62
     7
370
    25
100
AcDbLine
 10
627.0486552211
 20
495.3844754328
 30
0.0
 11
628.8486552211
 21
495.3844754328
 31
0.0
  0
LINE
  5
4F2
330
1F
100
AcDbEntity
  8
0
  6
Continuous
 62
     7
370
    25
100
AcDbLine
 10
578.8486552211
 20
575.3844754328
 30
0.0
 11
578.8486552211
 21
497.5844754328
 31
0.0
  0
LINE
  5
4F3
330
1F
100
AcDbEntity
  8
0
  6
Continuous
 62
     7
370
    25
100
AcDbLine
 10
578.8486552211
 20
575.3844754328
 30
0.0
 11
580.6486552211
 21
575.3844754328
 31
0.0
  0
LINE
  5
4F4
330
1F
100
AcDbEntity
  8
0
  6
Continuous
 62
     7
370
    25
100
AcDbLine
 10
578.8486552211
 20
497.5844754328
 30
0.0
 11
580.6486552211
 21
497.5844754328
 31
0.0
  0
ARC
  5
4F5
330
1F
100
AcDbEntity
  8
0
  6
Continuous
 62
     7
370
    25
100
AcDbCircle
 10
580.6486552211
 20
497.1844754328
 30
0.0
 40
0.2000000000000455
100
AcDbArc
 50
180.0
 51
270.0
  0
LINE
  5
4F6
330
1F
100
AcDbEntity
  8
0
  6
Continuous
 62
     7
370
    25
100
AcDbLine
 10
581.0486552211
 20
496.9844754328
 30
0.0
 11
580.6486552211
 21
496.9844754328
 31
0.0
  0
LINE
  5
4F7
330
1F
100
AcDbEntity
  8
0
  6
Continuous
 62
     7
370
    25
100
AcDbLine
 10
580.6486552211
 20
495.3844754328
 30
0.0
 11
582.0486552211
 21
495.3844754328
 31
0.0
  0
ARC
  5
4F8
330
1F
100
AcDbEntity
  8
0
  6
Continuous
 62
     7
370
    25
100
AcDbCircle
 10
580.6486552211
 20
497.1844754328
 30
0.0
 40
1.800000000000068
100
AcDbArc
 50
180.0
 51
270.0
  0
LINE
  5
4F9
330
1F
100
AcDbEntity
  8
0
  6
Continuous
 62
     7
370
    25
100
AcDbLine
 10
578.8486552211
 20
497.1844754328
 30
0.0
 11
578.8486552211
 21
497.5844754328
 31
0.0
  0
LINE
  5
4FA
330
1F
100
AcDbEntity
  8
0
  6
Continuous
 62
     7
370
    25
100
AcDbLine
 10
580.4486552211
 20
497.5844754328
 30
0.0
 11
580.4486552211
 21
497.1844754328
 31
0.0
  0
LINE
  5
4FB
330
1F
100
AcDbEntity
  8
0
  6
Continuous
 62
     7
370
    25
100
AcDbLine
 10
578.7486552211
 20
575.3844754328
 30
0.0
 11
577.1486552211
 21
575.3844754328
 31
0.0
  0
ARC
  5
4FC
330
1F
100
AcDbEntity
  8
0
  6
Continuous
 62
     7
370
    25
100
AcDbCircle
 10
578.7986552211
 20
575.3844754328
 30
0.0
 40
0.0499999999999545
100
AcDbArc
 50
0.0
 51
180.0
  0
ARC
  5
4FD
330
1F
100
AcDbEntity
  8
0
  6
Continuous
 62
     7
370
    25
100
AcDbCircle
 10
578.7986552211
 20
575.3844754328
 30
0.0
 40
1.649999999999977
100
AcDbArc
 50
0.0
 51
180.0
  0
LINE
  5
4FE
330
1F
100
AcDbEntity
  8
0
  6
Continuous
 62
     7
370
    25
100
AcDbLine
 10
577.1486552211
 20
565.3844754328
 30
0.0
 11
578.7486552211
 21
565.3844754328
 31
0.0
  0
LINE
  5
4FF
330
1F
100
AcDbEntity
  8
0
  6
Continuous
 62
     7
370
    25
100
AcDbLine
 10
577.1486552211
 20
567.3844754328
 30
0.0
 11
577.1486552211
 21
565.3844754328
 31
0.0
  0
LINE
  5
500
330
1F
100
AcDbEntity
  8
0
  6
Continuous
 62
     7
370
    25
100
AcDbLine
 10
578.7486552211
 20
567.3844754328
 30
0.0
 11
577.1486552211
 21
567.3844754328
 31
0.0
  0
LINE
  5
501
330
1F
100
AcDbEntity
  8
0
  6
Continuous
 62
     7
370
    25
100
AcDbLine
 10
578.7486552211
 20
565.3844754328
 30
0.0
 11
578.7486552211
 21
567.3844754328
 31
0.0
  0
LINE
  5
502
330
1F
100
AcDbEntity
  8
0
  6
Continuous
 62
     7
370
    25
100
AcDbLine
 10
577.1486552211
 20
567.3844754328
 30
0.0
 11
577.1486552211
 21
575.3844754328
 31
0.0
  0
LINE
  5
503
330
1F
100
AcDbEntity
  8
0
  6
Continuous
 62
     7
370
    25
100
AcDbLine
 10
578.7486552211
 20
567.3844754328
 30
0.0
 11
578.7486552211
 21
575.3844754328
 31
0.0
  0
DIMENSION
  5
504
330
1F
100
AcDbEntity
  8
FORMAT
100
AcDbDimension
  2
_D_4
 10
628.8486552211
 20
429.3844754328
 30
0.0
 11
605.5574961387
 21
429.3844754328
 31
0.0
 70
   160
  1
<>
 71
     2
 42
-1.0
  3
SLDDIMSTYLE1
100
AcDbAlignedDimension
 13
577.1486552211
 23
565.3844754328
 33
0.0
 14
628.8486552211
 24
495.3844754328
 34
0.0
100
AcDbRotatedDimension
  0
LINE
  5
50E
330
1F
100
AcDbEntity
  8
0
  6
Continuous
 62
     7
370
    25
100
AcDbLine
 10
943.0592661624
 20
577.0344754328
 30
0.0
 11
913.0592661624
 21
577.0344754328
 31
0.0
  0
LINE
  5
50F
330
1F
100
AcDbEntity
  8
0
  6
Continuous
 62
     7
370
    25
100
AcDbLine
 10
853.0592661624
 20
577.0344754328
 30
0.0
 11
823.0592661624
 21
577.0344754328
 31
0.0
  0
LINE
  5
510
330
1F
100
AcDbEntity
  8
0
  6
Continuous
 62
     7
370
    25
100
AcDbLine
 10
991.2592661624
 20
575.3844754328
 30
0.0
 11
991.2592661624
 21
495.3844754328
 31
0.0
  0
LINE
  5
511
330
1F
100
AcDbEntity
  8
0
  6
Continuous
 62
     7
370
    25
100
AcDbLine
 10
993.0592661624
 20
575.3844754328
 30
0.0
 11
993.0592661624
 21
495.3844754328
 31
0.0
  0
LINE
  5
512
330
1F
100
AcDbEntity
  8
0
  6
Continuous
 62
     7
370
    25
100
AcDbLine
 10
993.0592661624
 20
575.3844754328
 30
0.0
 11
991.2592661624
 21
575.3844754328
 31
0.0
  0
LINE
  5
513
330
1F
100
AcDbEntity
  8
0
  6
Continuous
 62
     7
370
    25
100
AcDbLine
 10
993.0592661624
 20
495.3844754328
 30
0.0
 11
991.2592661624
 21
495.3844754328
 31
0.0
  0
LINE
  5
514
330
1F
100
AcDbEntity
  8
0
  6
Continuous
 62
     7
370
    25
100
AcDbLine
 10
991.2592661624
 20
495.3844754328
 30
0.0
 11
981.0592661624
 21
495.3844754328
 31
0.0
  0
ARC
  5
515
330
1F
100
AcDbEntity
  8
0
  6
Continuous
 62
     7
370
    25
100
AcDbCircle
 10
981.0592661624
 20
498.3844754328
 30
0.0
 40
3.0
100
AcDbArc
 50
180.0
 51
270.0
  0
LINE
  5
516
330
1F
100
AcDbEntity
  8
0
  6
Continuous
 62
     7
370
    25
100
AcDbLine
 10
978.0592661624
 20
572.3844754328
 30
0.0
 11
978.0592661624
 21
498.3844754328
 31
0.0
  0
ARC
  5
517
330
1F
100
AcDbEntity
  8
0
  6
Continuous
 62
     7
370
    25
100
AcDbCircle
 10
981.0592661624
 20
572.3844754328
 30
0.0
 40
3.0
100
AcDbArc
 50
90.0
 51
180.0
  0
LINE
  5
518
330
1F
100
AcDbEntity
  8
0
  6
Continuous
 62
     7
370
    25
100
AcDbLine
 10
991.2592661624
 20
575.3844754328
 30
0.0
 11
981.0592661624
 21
575.3844754328
 31
0.0
  0
ARC
  5
519
330
1F
100
AcDbEntity
  8
0
  6
Continuous
 62
     7
370
    25
100
AcDbCircle
 10
785.0592661624
 20
572.3844754328
 30
0.0
 40
3.0
100
AcDbArc
 50
0.0
 51
90.0
  0
LINE
  5
51A
330
1F
100
AcDbEntity
  8
0
  6
Continuous
 62
     7
370
    25
100
AcDbLine
 10
788.0592661624
 20
572.3844754328
 30
0.0
 11
788.0592661624
 21
498.3844754328
 31
0.0
  0
ARC
  5
51B
330
1F
100
AcDbEntity
  8
0
  6
Continuous
 62
     7
370
    25
100
AcDbCircle
 10
785.0592661624
 20
498.3844754328
 30
0.0
 40
3.0
100
AcDbArc
 50
270.0
 51
0.0
  0
LINE
  5
51C
330
1F
100
AcDbEntity
  8
0
  6
Continuous
 62
     7
370
    25
100
AcDbLine
 10
774.8592661624
 20
495.3844754328
 30
0.0
 11
785.0592661624
 21
495.3844754328
 31
0.0
  0
LINE
  5
51D
330
1F
100
AcDbEntity
  8
0
  6
Continuous
 62
     7
370
    25
100
AcDbLine
 10
774.8592661624
 20
575.3844754328
 30
0.0
 11
774.8592661624
 21
495.3844754328
 31
0.0
  0
LINE
  5
51E
330
1F
100
AcDbEntity
  8
0
  6
Continuous
 62
     7
370
    25
100
AcDbLine
 10
774.8592661624
 20
575.3844754328
 30
0.0
 11
785.0592661624
 21
575.3844754328
 31
0.0
  0
LINE
  5
51F
330
1F
100
AcDbEntity
  8
0
  6
Continuous
 62
     7
370
    25
100
AcDbLine
 10
773.0592661624
 20
575.3844754328
 30
0.0
 11
773.0592661624
 21
495.3844754328
 31
0.0
  0
LINE
  5
520
330
1F
100
AcDbEntity
  8
0
  6
Continuous
 62
     7
370
    25
100
AcDbLine
 10
773.0592661624
 20
495.3844754328
 30
0.0
 11
774.8592661624
 21
495.3844754328
 31
0.0
  0
LINE
  5
521
330
1F
100
AcDbEntity
  8
0
  6
Continuous
 62
     7
370
    25
100
AcDbLine
 10
773.0592661624
 20
575.3844754328
 30
0.0
 11
774.8592661624
 21
575.3844754328
 31
0.0
  0
LINE
  5
522
330
1F
100
AcDbEntity
  8
0
  6
Continuous
 62
     7
370
    25
100
AcDbLine
 10
865.5592661624
 20
520.3844754328
 30
0.0
 11
865.5592661624
 21
497.1844754328
 31
0.0
  0
LINE
  5
523
330
1F
100
AcDbEntity
  8
0
  6
Continuous
 62
     7
370
    25
100
AcDbLine
 10
850.5592661624
 20
497.1844754328
 30
0.0
 11
865.5592661624
 21
497.1844754328
 31
0.0
  0
LINE
  5
524
330
1F
100
AcDbEntity
  8
0
  6
Continuous
 62
     7
370
    25
100
AcDbLine
 10
850.5592661624
 20
497.1844754328
 30
0.0
 11
850.5592661624
 21
530.3844754328
 31
0.0
  0
ARC
  5
525
330
1F
100
AcDbEntity
  8
0
  6
Continuous
 62
     7
370
    25
100
AcDbCircle
 10
855.5592661624
 20
530.3844754328
 30
0.0
 40
5.000000000000114
100
AcDbArc
 50
90.0
 51
180.0
  0
LINE
  5
526
330
1F
100
AcDbEntity
  8
0
  6
Continuous
 62
     7
370
    25
100
AcDbLine
 10
855.5592661624
 20
535.3844754328
 30
0.0
 11
910.5592661624
 21
535.3844754328
 31
0.0
  0
ARC
  5
527
330
1F
100
AcDbEntity
  8
0
  6
Continuous
 62
     7
370
    25
100
AcDbCircle
 10
910.5592661624
 20
530.3844754328
 30
0.0
 40
5.000000000000114
100
AcDbArc
 50
0.0
 51
90.0
  0
LINE
  5
528
330
1F
100
AcDbEntity
  8
0
  6
Continuous
 62
     7
370
    25
100
AcDbLine
 10
915.5592661624
 20
497.1844754328
 30
0.0
 11
915.5592661624
 21
530.3844754328
 31
0.0
  0
LINE
  5
529
330
1F
100
AcDbEntity
  8
0
  6
Continuous
 62
     7
370
    25
100
AcDbLine
 10
900.5592661624
 20
497.1844754328
 30
0.0
 11
915.5592661624
 21
497.1844754328
 31
0.0
  0
LINE
  5
52A
330
1F
100
AcDbEntity
  8
0
  6
Continuous
 62
     7
370
    25
100
AcDbLine
 10
900.5592661624
 20
497.1844754328
 30
0.0
 11
900.5592661624
 21
520.3844754328
 31
0.0
  0
LINE
  5
52B
330
1F
100
AcDbEntity
  8
0
  6
Continuous
 62
     7
370
    25
100
AcDbLine
 10
900.5592661624
 20
520.3844754328
 30
0.0
 11
865.5592661624
 21
520.3844754328
 31
0.0
  0
LINE
  5
52C
330
1F
100
AcDbEntity
  8
0
  6
Continuous
 62
     7
370
    25
100
AcDbLine
 10
915.5592661624
 20
495.3844754328
 30
0.0
 11
915.5592661624
 21
497.1844754328
 31
0.0
  0
LINE
  5
52D
330
1F
100
AcDbEntity
  8
0
  6
Continuous
 62
     7
370
    25
100
AcDbLine
 10
850.5592661624
 20
495.3844754328
 30
0.0
 11
915.5592661624
 21
495.3844754328
 31
0.0
  0
LINE
  5
52E
330
1F
100
AcDbEntity
  8
0
  6
Continuous
 62
     7
370
    25
100
AcDbLine
 10
850.5592661624
 20
495.3844754328
 30
0.0
 11
850.5592661624
 21
497.1844754328
 31
0.0
  0
LINE
  5
52F
330
1F
100
AcDbEntity
  8
0
  6
Continuous
 62
     7
370
    25
100
AcDbLine
 10
865.5592661624
 20
495.3956210508
 30
0.0
 11
865.5592661624
 21
497.1844754328
 31
0.0
  0
LINE
  5
530
330
1F
100
AcDbEntity
  8
0
  6
Continuous
 62
     7
370
    25
100
AcDbLine
 10
865.5592661624
 20
495.3956210508
 30
0.0
 11
900.5592661624
 21
495.3956210508
 31
0.0
  0
LINE
  5
531
330
1F
100
AcDbEntity
  8
0
  6
Continuous
 62
     7
370
    25
100
AcDbLine
 10
900.5592661624
 20
497.1844754328
 30
0.0
 11
900.5592661624
 21
495.3956210508
 31
0.0
  0
LINE
  5
532
330
1F
100
AcDbEntity
  8
0
  6
Continuous
 62
     7
370
    25
100
AcDbLine
 10
865.5592661624
 20
497.1844754328
 30
0.0
 11
900.5592661624
 21
497.1844754328
 31
0.0
  0
LINE
  5
533
330
1F
100
AcDbEntity
  8
0
  6
Continuous
 62
     7
370
    25
100
AcDbLine
 10
915.5592661624
 20
495.3844754328
 30
0.0
 11
981.0592661624
 21
495.3844754328
 31
0.0
  0
LINE
  5
534
330
1F
100
AcDbEntity
  8
0
  6
Continuous
 62
     7
370
    25
100
AcDbLine
 10
915.5592661624
 20
496.9844754328
 30
0.0
 11
978.4059663301
 21
496.9844754328
 31
0.0
  0
LINE
  5
535
330
1F
100
AcDbEntity
  8
0
  6
Continuous
 62
     7
370
    25
100
AcDbLine
 10
785.0592661624
 20
495.3844754328
 30
0.0
 11
850.5592661624
 21
495.3844754328
 31
0.0
  0
LINE
  5
536
330
1F
100
AcDbEntity
  8
0
  6
Continuous
 62
     7
370
    25
100
AcDbLine
 10
787.7125659947
 20
496.9844754328
 30
0.0
 11
850.5592661624
 21
496.9844754328
 31
0.0
  0
CIRCLE
  5
537
330
1F
100
AcDbEntity
  8
0
  6
Continuous
 62
     7
370
    25
100
AcDbCircle
 10
843.0592661624
 20
523.3844754328
 30
0.0
 40
2.000000000000114
  0
CIRCLE
  5
538
330
1F
100
AcDbEntity
  8
0
  6
Continuous
 62
     7
370
    25
100
AcDbCircle
 10
813.0592661624
 20
569.3844754328
 30
0.0
 40
2.000000000000114
  0
CIRCLE
  5
539
330
1F
100
AcDbEntity
  8
0
  6
Continuous
 62
     7
370
    25
100
AcDbCircle
 10
813.0592661624
 20
554.3844754328
 30
0.0
 40
2.000000000000114
  0
CIRCLE
  5
53A
330
1F
100
AcDbEntity
  8
0
  6
Continuous
 62
     7
370
    25
100
AcDbCircle
 10
843.0592661624
 20
548.3844754328
 30
0.0
 40
2.000000000000114
  0
CIRCLE
  5
53B
330
1F
100
AcDbEntity
  8
0
  6
Continuous
 62
     7
370
    25
100
AcDbCircle
 10
923.0592661624
 20
523.3844754328
 30
0.0
 40
2.000000000000114
  0
CIRCLE
  5
53C
330
1F
100
AcDbEntity
  8
0
  6
Continuous
 62
     7
370
    25
100
AcDbCircle
 10
953.0592661624
 20
569.3844754328
 30
0.0
 40
2.000000000000114
  0
CIRCLE
  5
53D
330
1F
100
AcDbEntity
  8
0
  6
Continuous
 62
     7
370
    25
100
AcDbCircle
 10
953.0592661624
 20
554.3844754328
 30
0.0
 40
2.000000000000114
  0
LINE
  5
53E
330
1F
100
AcDbEntity
  8
0
  6
Continuous
 62
     7
370
    25
100
AcDbLine
 10
943.0592661624
 20
575.3844754328
 30
0.0
 11
981.0592661624
 21
575.3844754328
 31
0.0
  0
LINE
  5
53F
330
1F
100
AcDbEntity
  8
0
  6
Continuous
 62
     7
370
    25
100
AcDbLine
 10
823.0592661624
 20
575.3844754328
 30
0.0
 11
785.0592661624
 21
575.3844754328
 31
0.0
  0
LINE
  5
540
330
1F
100
AcDbEntity
  8
0
  6
Continuous
 62
     7
370
    25
100
AcDbLine
 10
853.0592661624
 20
575.3844754328
 30
0.0
 11
823.0592661624
 21
575.3844754328
 31
0.0
  0
LINE
  5
541
330
1F
100
AcDbEntity
  8
0
  6
Continuous
 62
     7
370
    25
100
AcDbLine
 10
853.0592661624
 20
560.3844754328
 30
0.0
 11
853.0592661624
 21
575.3844754328
 31
0.0
  0
ARC
  5
542
330
1F
100
AcDbEntity
  8
0
  6
Continuous
 62
     7
370
    25
100
AcDbCircle
 10
858.0592661624
 20
560.3844754328
 30
0.0
 40
5.000000000000114
100
AcDbArc
 50
180.0
 51
270.0
  0
LINE
  5
543
330
1F
100
AcDbEntity
  8
0
  6
Continuous
 62
     7
370
    25
100
AcDbLine
 10
858.0592661624
 20
555.3844754328
 30
0.0
 11
908.0592661624
 21
555.3844754328
 31
0.0
  0
ARC
  5
544
330
1F
100
AcDbEntity
  8
0
  6
Continuous
 62
     7
370
    25
100
AcDbCircle
 10
908.0592661624
 20
560.3844754328
 30
0.0
 40
5.0
100
AcDbArc
 50
270.0
 51
0.0
  0
LINE
  5
545
330
1F
100
AcDbEntity
  8
0
  6
Continuous
 62
     7
370
    25
100
AcDbLine
 10
913.0592661624
 20
560.3844754328
 30
0.0
 11
913.0592661624
 21
575.3844754328
 31
0.0
  0
LINE
  5
546
330
1F
100
AcDbEntity
  8
0
  6
Continuous
 62
     7
370
    25
100
AcDbLine
 10
913.0592661624
 20
575.3844754328
 30
0.0
 11
943.0592661624
 21
575.3844754328
 31
0.0
  0
CIRCLE
  5
547
330
1F
100
AcDbEntity
  8
0
  6
Continuous
 62
     7
370
    25
100
AcDbCircle
 10
923.0592661624
 20
548.3844754328
 30
0.0
 40
2.000000000000114
  0
LINE
  5
548
330
1F
100
AcDbEntity
  8
0
  6
Continuous
 62
     7
370
    25
100
AcDbLine
 10
913.0592661624
 20
575.3844754328
 30
0.0
 11
913.0592661624
 21
577.0344754328
 31
0.0
  0
LINE
  5
549
330
1F
100
AcDbEntity
  8
0
  6
Continuous
 62
     7
370
    25
100
AcDbLine
 10
943.0592661624
 20
577.0344754328
 30
0.0
 11
943.0592661624
 21
575.3844754328
 31
0.0
  0
LINE
  5
54A
330
1F
100
AcDbEntity
  8
0
  6
Continuous
 62
     7
370
    25
100
AcDbLine
 10
823.0592661624
 20
577.0344754328
 30
0.0
 11
823.0592661624
 21
575.3844754328
 31
0.0
  0
LINE
  5
54B
330
1F
100
AcDbEntity
  8
0
  6
Continuous
 62
     7
370
    25
100
AcDbLine
 10
853.0592661624
 20
575.3844754328
 30
0.0
 11
853.0592661624
 21
577.0344754328
 31
0.0
  0
LINE
  5
54C
330
1F
100
AcDbEntity
  8
0
  6
Continuous
 62
     8
370
    25
100
AcDbLine
 10
787.8088115794
 20
497.1844754328
 30
0.0
 11
850.5592661624
 21
497.1844754328
 31
0.0
  0
LINE
  5
54D
330
1F
100
AcDbEntity
  8
0
  6
Continuous
 62
     8
370
    25
100
AcDbLine
 10
915.5592661624
 20
497.1844754328
 30
0.0
 11
978.3097207454
 21
497.1844754328
 31
0.0
  0
DIMENSION
  5
54E
330
1F
100
AcDbEntity
  8
FORMAT
100
AcDbDimension
  2
_D_5
 10
818.4909339547
 20
520.3844754328
 30
0.0
 11
818.4909339547
 21
516.7007696854
 31
0.0
 70
   160
  1
<>
 71
     2
 42
-1.0
  3
SLDDIMSTYLE1
100
AcDbAlignedDimension
 13
775.2592661624
 23
497.1844754328
 33
0.0
 14
865.5592661624
 24
520.3844754328
 34
0.0
 50
90.0
100
AcDbRotatedDimension
  0
DIMENSION
  5
557
330
1F
100
AcDbEntity
  8
FORMAT
100
AcDbDimension
  2
_D_6
 10
900.5592661624
 20
465.3844754328
 30
0.0
 11
882.8008122388
 21
465.3844754328
 31
0.0
 70
   160
  1
<>
 71
     2
 42
-1.0
  3
SLDDIMSTYLE0
100
AcDbAlignedDimension
 13
865.5592661624
 23
495.3956210508
 33
0.0
 14
900.5592661624
 24
495.3956210508
 34
0.0
100
AcDbRotatedDimension
  0
LINE
  5
561
330
1F
100
AcDbEntity
  8
0
  6
Continuous
 62
     7
370
    25
100
AcDbLine
 10
609.8801108464
 20
158.7390755788
 30
0.0
 11
665.8801108464
 21
158.7390755788
 31
0.0
  0
LINE
  5
562
330
1F
100
AcDbEntity
  8
0
  6
Continuous
 62
     7
370
    25
100
AcDbLine
 10
609.8801108464
 20
155.9390755788
 30
0.0
 11
665.8801108464
 21
155.9390755788
 31
0.0
  0
LINE
  5
563
330
1F
100
AcDbEntity
  8
0
  6
Continuous
 62
     7
370
    25
100
AcDbLine
 10
665.8801108464
 20
158.7390755788
 30
0.0
 11
665.8801108464
 21
155.9390755788
 31
0.0
  0
LINE
  5
564
330
1F
100
AcDbEntity
  8
0
  6
Continuous
 62
     7
370
    25
100
AcDbLine
 10
609.8801108464
 20
158.7390755788
 30
0.0
 11
609.8801108464
 21
155.9390755788
 31
0.0
  0
CIRCLE
  5
565
330
1F
100
AcDbEntity
  8
0
  6
Continuous
 62
     7
370
    25
100
AcDbCircle
 10
647.8801108464
 20
168.5390755788
 30
0.0
 40
1.5
  0
ARC
  5
566
330
1F
100
AcDbEntity
  8
0
  6
Continuous
 62
     7
370
    25
100
AcDbCircle
 10
660.8801108464
 20
202.5390755788
 30
0.0
 40
5.0
100
AcDbArc
 50
0.0
 51
90.0
  0
LINE
  5
567
330
1F
100
AcDbEntity
  8
0
  6
Continuous
 62
     7
370
    25
100
AcDbLine
 10
665.8801108464
 20
202.5390755788
 30
0.0
 11
665.8801108464
 21
158.7390755788
 31
0.0
  0
CIRCLE
  5
568
330
1F
100
AcDbEntity
  8
0
  6
Continuous
 62
     7
370
    25
100
AcDbCircle
 10
627.8801108464
 20
168.5390755788
 30
0.0
 40
1.5
  0
CIRCLE
  5
569
330
1F
100
AcDbEntity
  8
0
  6
Continuous
 62
     7
370
    25
100
AcDbCircle
 10
627.8801108464
 20
198.5390755788
 30
0.0
 40
1.5
  0
LINE
  5
56A
330
1F
100
AcDbEntity
  8
0
  6
Continuous
 62
     7
370
    25
100
AcDbLine
 10
614.8801108464
 20
207.5390755788
 30
0.0
 11
660.8801108464
 21
207.5390755788
 31
0.0
  0
CIRCLE
  5
56B
330
1F
100
AcDbEntity
  8
0
  6
Continuous
 62
     7
370
    25
100
AcDbCircle
 10
647.8801108464
 20
198.5390755788
 30
0.0
 40
1.5
  0
ARC
  5
56C
330
1F
100
AcDbEntity
  8
0
  6
Continuous
 62
     7
370
    25
100
AcDbCircle
 10
614.8801108464
 20
202.5390755788
 30
0.0
 40
5.0
100
AcDbArc
 50
90.0
 51
180.0
  0
LINE
  5
56D
330
1F
100
AcDbEntity
  8
0
  6
Continuous
 62
     7
370
    25
100
AcDbLine
 10
609.8801108464
 20
202.5390755788
 30
0.0
 11
609.8801108464
 21
158.7390755788
 31
0.0
  0
LINE
  5
56E
330
1F
100
AcDbEntity
  8
0
  6
Continuous
 62
     7
370
    25
100
AcDbLine
 10
609.8801108464
 20
155.7390755788
 30
0.0
 11
665.8801108464
 21
155.7390755788
 31
0.0
  0
LINE
  5
56F
330
1F
100
AcDbEntity
  8
0
  6
Continuous
 62
     7
370
    25
100
AcDbLine
 10
665.8801108464
 20
155.9390755788
 30
0.0
 11
665.8801108464
 21
155.7390755788
 31
0.0
  0
LINE
  5
570
330
1F
100
AcDbEntity
  8
0
  6
Continuous
 62
     7
370
    25
100
AcDbLine
 10
609.8801108464
 20
155.9390755788
 30
0.0
 11
609.8801108464
 21
155.7390755788
 31
0.0
  0
CIRCLE
  5
571
330
1F
100
AcDbEntity
  8
0
  6
Continuous
 62
     7
370
    25
100
AcDbCircle
 10
677.8801108464
 20
121.0390755788
 30
0.0
 40
2.500000000000028
  0
ARC
  5
572
330
1F
100
AcDbEntity
  8
0
  6
Continuous
 62
     7
370
    25
100
AcDbCircle
 10
592.8801108464
 20
150.7390755788
 30
0.0
 40
5.0
100
AcDbArc
 50
90.0
 51
180.0
  0
ARC
  5
573
330
1F
100
AcDbEntity
  8
0
  6
Continuous
 62
     7
370
    25
100
AcDbCircle
 10
682.8801108464
 20
150.7390755788
 30
0.0
 40
5.0
100
AcDbArc
 50
0.0
 51
90.0
  0
LINE
  5
574
330
1F
100
AcDbEntity
  8
0
  6
Continuous
 62
     7
370
    25
100
AcDbLine
 10
687.8801108464
 20
118.5390755788
 30
0.0
 11
687.8801108464
 21
150.7390755788
 31
0.0
  0
ARC
  5
575
330
1F
100
AcDbEntity
  8
0
  6
Continuous
 62
     7
370
    25
100
AcDbCircle
 10
682.8801108464
 20
118.5390755788
 30
0.0
 40
5.0
100
AcDbArc
 50
270.0
 51
0.0
  0
LINE
  5
576
330
1F
100
AcDbEntity
  8
0
  6
Continuous
 62
     7
370
    25
100
AcDbLine
 10
592.8801108464
 20
113.5390755788
 30
0.0
 11
682.8801108464
 21
113.5390755788
 31
0.0
  0
ARC
  5
577
330
1F
100
AcDbEntity
  8
0
  6
Continuous
 62
     7
370
    25
100
AcDbCircle
 10
592.8801108464
 20
118.5390755788
 30
0.0
 40
5.0
100
AcDbArc
 50
180.0
 51
270.0
  0
LINE
  5
578
330
1F
100
AcDbEntity
  8
0
  6
Continuous
 62
     7
370
    25
100
AcDbLine
 10
587.8801108464
 20
118.5390755788
 30
0.0
 11
587.8801108464
 21
150.7390755788
 31
0.0
  0
CIRCLE
  5
579
330
1F
100
AcDbEntity
  8
0
  6
Continuous
 62
     7
370
    25
100
AcDbCircle
 10
597.8801108464
 20
121.0390755788
 30
0.0
 40
2.500000000000028
  0
LINE
  5
57A
330
1F
100
AcDbEntity
  8
0
  6
Continuous
 62
     7
370
    25
100
AcDbLine
 10
592.8801108464
 20
155.7390755788
 30
0.0
 11
609.8801108464
 21
155.7390755788
 31
0.0
  0
CIRCLE
  5
57B
330
1F
100
AcDbEntity
  8
0
  6
Continuous
 62
     7
370
    25
100
AcDbCircle
 10
597.8801108464
 20
146.0390755788
 30
0.0
 40
2.5
  0
LINE
  5
57C
330
1F
100
AcDbEntity
  8
0
  6
Continuous
 62
     7
370
    25
100
AcDbLine
 10
682.8801108464
 20
155.7390755788
 30
0.0
 11
665.8801108464
 21
155.7390755788
 31
0.0
  0
CIRCLE
  5
57D
330
1F
100
AcDbEntity
  8
0
  6
Continuous
 62
     7
370
    25
100
AcDbCircle
 10
677.8801108464
 20
146.0390755788
 30
0.0
 40
2.5
  0
DIMENSION
  5
57E
330
1F
100
AcDbEntity
  8
FORMAT
100
AcDbDimension
  2
_D_7
 10
521.8801108464
 20
113.5390755788
 30
0.0
 11
521.8801108464
 21
160.5470430666
 31
0.0
 70
   160
  1
<>
 71
     2
 42
-1.0
  3
SLDDIMSTYLE0
100
AcDbAlignedDimension
 13
614.8801108464
 23
207.5390755788
 33
0.0
 14
592.8801108464
 24
113.5390755788
 34
0.0
 50
90.0
100
AcDbRotatedDimension
  0
DIMENSION
  5
588
330
1F
100
AcDbEntity
  8
FORMAT
100
AcDbDimension
  2
_D_8
 10
687.8801108464
 20
65.5390755788
 30
0.0
 11
637.0405226894
 21
65.5390755788
 31
0.0
 70
   160
  1
<>
 71
     2
 42
-1.0
  3
SLDDIMSTYLE0
100
AcDbAlignedDimension
 13
587.8801108464
 23
118.5390755788
 33
0.0
 14
687.8801108464
 24
118.5390755788
 34
0.0
 50
0.0
100
AcDbRotatedDimension
  0
INSERT
  5
59D
330
1F
100
AcDbEntity
  8
FORMAT
100
AcDbBlockReference
  2
SW_CENTERMARKSYMBOL_11
 10
627.8801108464
 20
168.5390755788
 30
0.0
  0
INSERT
  5
5A9
330
1F
100
AcDbEntity
  8
FORMAT
100
AcDbBlockReference
  2
SW_CENTERMARKSYMBOL_12
 10
627.8801108464
 20
198.5390755788
 30
0.0
  0
INSERT
  5
5B5
330
1F
100
AcDbEntity
  8
FORMAT
100
AcDbBlockReference
  2
SW_CENTERMARKSYMBOL_13
 10
597.8801108464
 20
121.0390755788
 30
0.0
  0
INSERT
  5
5C1
330
1F
100
AcDbEntity
  8
FORMAT
100
AcDbBlockReference
  2
SW_CENTERMARKSYMBOL_14
 10
597.8801108464
 20
146.0390755788
 30
0.0
  0
INSERT
  5
5CD
330
1F
100
AcDbEntity
  8
FORMAT
100
AcDbBlockReference
  2
SW_CENTERMARKSYMBOL_15
 10
647.8801108464
 20
168.5390755788
 30
0.0
  0
INSERT
  5
5D9
330
1F
100
AcDbEntity
  8
FORMAT
100
AcDbBlockReference
  2
SW_CENTERMARKSYMBOL_16
 10
647.8801108464
 20
198.5390755788
 30
0.0
  0
INSERT
  5
5E5
330
1F
100
AcDbEntity
  8
FORMAT
100
AcDbBlockReference
  2
SW_CENTERMARKSYMBOL_17
 10
677.8801108464
 20
121.0390755788
 30
0.0
  0
INSERT
  5
5F1
330
1F
100
AcDbEntity
  8
FORMAT
100
AcDbBlockReference
  2
SW_CENTERMARKSYMBOL_18
 10
677.8801108464
 20
146.0390755788
 30
0.0
  0
LINE
  5
5F2
330
1F
100
AcDbEntity
  8
0
  6
Continuous
 62
     7
370
    25
100
AcDbLine
 10
660.8801108911
 20
301.9377015297
 30
0.0
 11
660.8801108911
 21
299.3377015226
 31
0.0
  0
LINE
  5
5F3
330
1F
100
AcDbEntity
  8
0
  6
Continuous
 62
     7
370
    25
100
AcDbLine
 10
614.8801108017
 20
299.3377015226
 30
0.0
 11
660.8801108911
 21
299.3377015226
 31
0.0
  0
LINE
  5
5F4
330
1F
100
AcDbEntity
  8
0
  6
Continuous
 62
     7
370
    25
100
AcDbLine
 10
614.8801108017
 20
301.9377015297
 30
0.0
 11
614.8801108017
 21
299.3377015226
 31
0.0
  0
LINE
  5
5F5
330
1F
100
AcDbEntity
  8
0
  6
Continuous
 62
     7
370
    25
100
AcDbLine
 10
614.8801108017
 20
301.9377015297
 30
0.0
 11
660.8801108911
 21
301.9377015297
 31
0.0
  0
LINE
  5
5F6
330
1F
100
AcDbEntity
  8
0
  6
Continuous
 62
     7
370
    25
100
AcDbLine
 10
609.8801099821
 20
299.3377015226
 30
0.0
 11
609.8801099821
 21
301.9377015297
 31
0.0
  0
LINE
  5
5F7
330
1F
100
AcDbEntity
  8
0
  6
Continuous
 62
     7
370
    25
100
AcDbLine
 10
614.8801108017
 20
299.3377015226
 30
0.0
 11
609.8801099821
 21
299.3377015226
 31
0.0
  0
LINE
  5
5F8
330
1F
100
AcDbEntity
  8
0
  6
Continuous
 62
     7
370
    25
100
AcDbLine
 10
609.8801099821
 20
301.9377015297
 30
0.0
 11
614.8801108017
 21
301.9377015297
 31
0.0
  0
LINE
  5
5F9
330
1F
100
AcDbEntity
  8
0
  6
Continuous
 62
     7
370
    25
100
AcDbLine
 10
665.8801117106
 20
299.3377015226
 30
0.0
 11
665.8801117106
 21
301.9377015297
 31
0.0
  0
LINE
  5
5FA
330
1F
100
AcDbEntity
  8
0
  6
Continuous
 62
     7
370
    25
100
AcDbLine
 10
660.8801108911
 20
299.3377015226
 30
0.0
 11
665.8801117106
 21
299.3377015226
 31
0.0
  0
LINE
  5
5FB
330
1F
100
AcDbEntity
  8
0
  6
Continuous
 62
     7
370
    25
100
AcDbLine
 10
665.8801117106
 20
301.9377015297
 30
0.0
 11
660.8801108911
 21
301.9377015297
 31
0.0
  0
LINE
  5
5FC
330
1F
100
AcDbEntity
  8
0
  6
Continuous
 62
     7
370
    25
100
AcDbLine
 10
609.8801099821
 20
302.1377015246
 30
0.0
 11
665.8801117106
 21
302.1377015246
 31
0.0
  0
LINE
  5
5FD
330
1F
100
AcDbEntity
  8
0
  6
Continuous
 62
     7
370
    25
100
AcDbLine
 10
665.8801117106
 20
301.9377015297
 30
0.0
 11
665.8801117106
 21
302.1377015246
 31
0.0
  0
LINE
  5
5FE
330
1F
100
AcDbEntity
  8
0
  6
Continuous
 62
     7
370
    25
100
AcDbLine
 10
609.8801099821
 20
301.9377015297
 30
0.0
 11
609.8801099821
 21
302.1377015246
 31
0.0
  0
LINE
  5
5FF
330
1F
100
AcDbEntity
  8
0
  6
Continuous
 62
     7
370
    25
100
AcDbLine
 10
609.8801099821
 20
309.137701406
 30
0.0
 11
609.8801099821
 21
311.9377013061
 31
0.0
  0
LINE
  5
600
330
1F
100
AcDbEntity
  8
0
  6
Continuous
 62
     7
370
    25
100
AcDbLine
 10
609.8801099821
 20
311.9377013061
 30
0.0
 11
665.8801117106
 21
311.9377013061
 31
0.0
  0
LINE
  5
601
330
1F
100
AcDbEntity
  8
0
  6
Continuous
 62
     7
370
    25
100
AcDbLine
 10
665.8801117106
 20
309.137701406
 30
0.0
 11
665.8801117106
 21
311.9377013061
 31
0.0
  0
LINE
  5
602
330
1F
100
AcDbEntity
  8
0
  6
Continuous
 62
     7
370
    25
100
AcDbLine
 10
609.8801099821
 20
309.137701406
 30
0.0
 11
665.8801117106
 21
309.137701406
 31
0.0
  0
LINE
  5
603
330
1F
100
AcDbEntity
  8
0
  6
Continuous
 62
     7
370
    25
100
AcDbLine
 10
609.8801099821
 20
302.1377015246
 30
0.0
 11
609.8801099821
 21
309.137701406
 31
0.0
  0
LINE
  5
604
330
1F
100
AcDbEntity
  8
0
  6
Continuous
 62
     7
370
    25
100
AcDbLine
 10
665.8801117106
 20
302.1377015246
 30
0.0
 11
665.8801117106
 21
309.137701406
 31
0.0
  0
LINE
  5
605
330
1F
100
AcDbEntity
  8
0
  6
Continuous
 62
     7
370
    25
100
AcDbLine
 10
587.8801101013
 20
309.3377015319
 30
0.0
 11
587.8801101013
 21
311.9377013061
 31
0.0
  0
LINE
  5
606
330
1F
100
AcDbEntity
  8
0
  6
Continuous
 62
     7
370
    25
100
AcDbLine
 10
587.8801101013
 20
311.9377013061
 30
0.0
 11
592.8801090582
 21
311.9377013061
 31
0.0
  0
LINE
  5
607
330
1F
100
AcDbEntity
  8
0
  6
Continuous
 62
     7
370
    25
100
AcDbLine
 10
592.8801090582
 20
311.9377013061
 30
0.0
 11
592.8801090582
 21
309.3377015319
 31
0.0
  0
LINE
  5
608
330
1F
100
AcDbEntity
  8
0
  6
Continuous
 62
     7
370
    25
100
AcDbLine
 10
592.8801090582
 20
309.3377015319
 30
0.0
 11
587.8801101013
 21
309.3377015319
 31
0.0
  0
LINE
  5
609
330
1F
100
AcDbEntity
  8
0
  6
Continuous
 62
     7
370
    25
100
AcDbLine
 10
682.8801126345
 20
311.9377013061
 30
0.0
 11
682.8801126345
 21
309.3377015319
 31
0.0
  0
LINE
  5
60A
330
1F
100
AcDbEntity
  8
0
  6
Continuous
 62
     7
370
    25
100
AcDbLine
 10
682.8801126345
 20
309.3377015319
 30
0.0
 11
665.8801117106
 21
309.3377015319
 31
0.0
  0
LINE
  5
60B
330
1F
100
AcDbEntity
  8
0
  6
Continuous
 62
     7
370
    25
100
AcDbLine
 10
682.8801126345
 20
311.9377013061
 30
0.0
 11
665.8801117106
 21
311.9377013061
 31
0.0
  0
LINE
  5
60C
330
1F
100
AcDbEntity
  8
0
  6
Continuous
 62
     7
370
    25
100
AcDbLine
 10
687.8801115914
 20
311.9377013061
 30
0.0
 11
682.8801126345
 21
311.9377013061
 31
0.0
  0
LINE
  5
60D
330
1F
100
AcDbEntity
  8
0
  6
Continuous
 62
     7
370
    25
100
AcDbLine
 10
687.8801115914
 20
309.3377015319
 30
0.0
 11
687.8801115914
 21
311.9377013061
 31
0.0
  0
LINE
  5
60E
330
1F
100
AcDbEntity
  8
0
  6
Continuous
 62
     7
370
    25
100
AcDbLine
 10
682.8801126345
 20
309.3377015319
 30
0.0
 11
687.8801115914
 21
309.3377015319
 31
0.0
  0
LINE
  5
60F
330
1F
100
AcDbEntity
  8
0
  6
Continuous
 62
     7
370
    25
100
AcDbLine
 10
592.8801090582
 20
309.3377015319
 30
0.0
 11
609.8801099821
 21
309.3377015319
 31
0.0
  0
LINE
  5
610
330
1F
100
AcDbEntity
  8
0
  6
Continuous
 62
     7
370
    25
100
AcDbLine
 10
592.8801090582
 20
311.9377013061
 30
0.0
 11
609.8801099821
 21
311.9377013061
 31
0.0
  0
LINE
  5
611
330
1F
100
AcDbEntity
  8
0
  6
Continuous
 62
     7
370
    25
100
AcDbLine
 10
784.9223014066
 20
155.7390756787
 30
0.0
 11
782.3223016324
 21
155.7390756787
 31
0.0
  0
LINE
  5
612
330
1F
100
AcDbEntity
  8
0
  6
Continuous
 62
     7
370
    25
100
AcDbLine
 10
784.9223014066
 20
150.7390757904
 30
0.0
 11
784.9223014066
 21
155.7390756787
 31
0.0
  0
LINE
  5
613
330
1F
100
AcDbEntity
  8
0
  6
Continuous
 62
     7
370
    25
100
AcDbLine
 10
782.3223016324
 20
150.7390757904
 30
0.0
 11
784.9223014066
 21
150.7390757904
 31
0.0
  0
LINE
  5
614
330
1F
100
AcDbEntity
  8
0
  6
Continuous
 62
     7
370
    25
100
AcDbLine
 10
782.3223016324
 20
155.7390756787
 30
0.0
 11
782.3223016324
 21
150.7390757904
 31
0.0
  0
LINE
  5
615
330
1F
100
AcDbEntity
  8
0
  6
Continuous
 62
     7
370
    25
100
AcDbLine
 10
784.9223014066
 20
118.5390764729
 30
0.0
 11
782.3223016324
 21
118.5390764729
 31
0.0
  0
LINE
  5
616
330
1F
100
AcDbEntity
  8
0
  6
Continuous
 62
     7
370
    25
100
AcDbLine
 10
782.3223016324
 20
118.5390764729
 30
0.0
 11
782.3223016324
 21
150.7390757904
 31
0.0
  0
LINE
  5
617
330
1F
100
AcDbEntity
  8
0
  6
Continuous
 62
     7
370
    25
100
AcDbLine
 10
784.9223014066
 20
150.7390757904
 30
0.0
 11
784.9223014066
 21
118.5390764729
 31
0.0
  0
LINE
  5
618
330
1F
100
AcDbEntity
  8
0
  6
Continuous
 62
     7
370
    25
100
AcDbLine
 10
782.3223016324
 20
113.5390737907
 30
0.0
 11
784.9223014066
 21
113.5390737907
 31
0.0
  0
LINE
  5
619
330
1F
100
AcDbEntity
  8
0
  6
Continuous
 62
     7
370
    25
100
AcDbLine
 10
782.3223016324
 20
118.5390764729
 30
0.0
 11
782.3223016324
 21
113.5390737907
 31
0.0
  0
LINE
  5
61A
330
1F
100
AcDbEntity
  8
0
  6
Continuous
 62
     7
370
    25
100
AcDbLine
 10
784.9223014066
 20
113.5390737907
 30
0.0
 11
784.9223014066
 21
118.5390764729
 31
0.0
  0
ARC
  5
61B
330
1F
100
AcDbEntity
  8
0
  6
Continuous
 62
     7
370
    25
100
AcDbCircle
 10
782.1223016302
 20
155.7390755788
 30
0.0
 40
0.2000000000000455
100
AcDbArc
 50
0.0
 51
90.0
  0
LINE
  5
61C
330
1F
100
AcDbEntity
  8
0
  6
Continuous
 62
     7
370
    25
100
AcDbLine
 10
782.1223015065
 20
158.5390755788
 30
0.0
 11
782.1223015065
 21
155.9390755718
 31
0.0
  0
ARC
  5
61D
330
1F
100
AcDbEntity
  8
0
  6
Continuous
 62
     7
370
    25
100
AcDbCircle
 10
782.1223016302
 20
155.7390755788
 30
0.0
 40
2.800000000000068
100
AcDbArc
 50
0.0
 51
90.0
  0
LINE
  5
61E
330
1F
100
AcDbEntity
  8
0
  6
Continuous
 62
     7
370
    25
100
AcDbLine
 10
775.1223016251
 20
155.9390755718
 30
0.0
 11
775.1223016251
 21
158.5390755788
 31
0.0
  0
LINE
  5
61F
330
1F
100
AcDbEntity
  8
0
  6
Continuous
 62
     7
370
    25
100
AcDbLine
 10
775.1223016251
 20
158.5390755788
 30
0.0
 11
782.1223015065
 21
158.5390755788
 31
0.0
  0
LINE
  5
620
330
1F
100
AcDbEntity
  8
0
  6
Continuous
 62
     7
370
    25
100
AcDbLine
 10
775.1223016251
 20
155.9390755718
 30
0.0
 11
782.1223015065
 21
155.9390755718
 31
0.0
  0
LINE
  5
621
330
1F
100
AcDbEntity
  8
0
  6
Continuous
 62
     7
370
    25
100
AcDbLine
 10
772.3223016231
 20
202.5390753404
 30
0.0
 11
774.9223016302
 21
202.5390753404
 31
0.0
  0
LINE
  5
622
330
1F
100
AcDbEntity
  8
0
  6
Continuous
 62
     7
370
    25
100
AcDbLine
 10
774.9223016302
 20
202.5390753404
 30
0.0
 11
774.9223016302
 21
158.7390755738
 31
0.0
  0
LINE
  5
623
330
1F
100
AcDbEntity
  8
0
  6
Continuous
 62
     7
370
    25
100
AcDbLine
 10
774.9223016302
 20
158.7390755738
 30
0.0
 11
772.3223016231
 21
158.7390755738
 31
0.0
  0
LINE
  5
624
330
1F
100
AcDbEntity
  8
0
  6
Continuous
 62
     7
370
    25
100
AcDbLine
 10
772.3223016231
 20
202.5390753404
 30
0.0
 11
772.3223016231
 21
158.7390755738
 31
0.0
  0
ARC
  5
625
330
1F
100
AcDbEntity
  8
0
  6
Continuous
 62
     7
370
    25
100
AcDbCircle
 10
775.1223016302
 20
158.7390755788
 30
0.0
 40
2.799999999999983
100
AcDbArc
 50
180.0
 51
270.0
  0
ARC
  5
626
330
1F
100
AcDbEntity
  8
0
  6
Continuous
 62
     7
370
    25
100
AcDbCircle
 10
775.1223016302
 20
158.7390755788
 30
0.0
 40
0.1999999999999886
100
AcDbArc
 50
180.0
 51
270.0
  0
LINE
  5
627
330
1F
100
AcDbEntity
  8
0
  6
Continuous
 62
     7
370
    25
100
AcDbLine
 10
774.9223016302
 20
207.5390742973
 30
0.0
 11
772.3223016231
 21
207.5390742973
 31
0.0
  0
LINE
  5
628
330
1F
100
AcDbEntity
  8
0
  6
Continuous
 62
     7
370
    25
100
AcDbLine
 10
772.3223016231
 20
207.5390742973
 30
0.0
 11
772.3223016231
 21
202.5390753404
 31
0.0
  0
LINE
  5
629
330
1F
100
AcDbEntity
  8
0
  6
Continuous
 62
     7
370
    25
100
AcDbLine
 10
774.9223016302
 20
202.5390753404
 30
0.0
 11
774.9223016302
 21
207.5390742973
 31
0.0
  0
DIMENSION
  5
62A
330
1F
100
AcDbEntity
  8
FORMAT
100
AcDbDimension
  2
_D_9
 10
784.9223016302
 20
65.5390755788
 30
0.0
 11
809.6752417841
 21
65.5390755788
 31
0.0
 70
   160
  1
<>
 71
     2
 42
-1.0
  3
SLDDIMSTYLE1
100
AcDbAlignedDimension
 13
772.3223016302
 23
158.7390755788
 33
0.0
 14
784.9223016302
 24
113.5390755788
 34
0.0
100
AcDbRotatedDimension
  0
LWPOLYLINE
  5
635
330
1F
100
AcDbEntity
  8
0
  6
Continuous
 62
     7
370
    25
100
AcDbPolyline
 90
       42
 70
   128
 43
0.0
 10
223.3540694056
 20
171.7250432701
 10
224.0028288857
 20
171.7379346371
 10
224.6363819636
 20
171.7763069899
 10
225.2398787591
 20
171.8392597393
 10
225.7991737047
 20
171.9253176705
 10
226.3011575037
 20
172.03246447
 10
226.7340641761
 20
172.158188361
 10
227.0877464966
 20
172.2995417074
 10
227.3539145303
 20
172.4532127262
 10
227.5263298129
 20
172.6155981303
 10
227.6009506372
 20
172.7828925357
 10
227.5760284451
 20
172.951174143
 10
227.4521467102
 20
173.1164988012
 10
227.232209762
 20
173.2749922083
 10
226.9213724708
 20
173.4229383872
 10
226.5269205732
 20
173.556870024
 10
226.058099774
 20
173.6736476303
 10
225.5258987484
 20
173.7705349804
 10
224.9427919801
 20
173.8452596472
 10
224.3224468025
 20
173.8960707442
 10
223.6794037221
 20
173.9217780412
 10
223.028735089
 20
173.9217780412
 10
222.3856920086
 20
173.8960707442
 10
221.765346831
 20
173.8452596472
 10
221.1822400627
 20
173.7705349804
 10
220.6500390371
 20
173.6736476303
 10
220.1812182379
 20
173.556870024
 10
219.7867663404
 20
173.4229383872
 10
219.4759290492
 20
173.2749922083
 10
219.2559921009
 20
173.1164988012
 10
219.132110366
 20
172.951174143
 10
219.1071881739
 20
172.7828925357
 10
219.1818089982
 20
172.6155981303
 10
219.3542242808
 20
172.4532127262
 10
219.6203923145
 20
172.2995417074
 10
219.9740746351
 20
172.158188361
 10
220.4069813074
 20
172.03246447
 10
220.9089651064
 20
171.9253176705
 10
221.468260052
 20
171.8392597393
 10
222.0717568475
 20
171.7763069899
 10
222.7053099255
 20
171.7379346371
 10
223.3540694056
 20
171.7250432701
  0
LINE
  5
636
330
1F
100
AcDbEntity
  8
0
  6
Continuous
 62
     7
370
    25
100
AcDbLine
 10
197.8540698824
 20
175.9308522449
 30
0.0
 11
197.8540698824
 21
156.583745207
 31
0.0
  0
LWPOLYLINE
  5
637
330
1F
100
AcDbEntity
  8
0
  6
Continuous
 62
     7
370
    25
100
AcDbPolyline
 90
       12
 70
   128
 43
0.0
 10
202.8540688393
 20
177.224947314
 10
202.1424955515
 20
177.2117765502
 10
201.4454061923
 20
177.1725287543
 10
200.7769941179
 20
177.108003001
 10
200.1508659509
 20
177.0195143179
 10
199.5797659097
 20
176.9088657454
 10
199.0753206251
 20
176.7783054964
 10
198.6478025851
 20
176.6304934279
 10
198.3059103427
 20
176.4684395746
 10
198.0566046027
 20
176.2954426811
 10
197.9049629358
 20
176.115021284
 10
197.8540698824
 20
175.9308522449
  0
LINE
  5
638
330
1F
100
AcDbEntity
  8
0
  6
Continuous
 62
     7
370
    25
100
AcDbLine
 10
202.8540688393
 20
177.224947314
 30
0.0
 11
243.8540699718
 21
177.224947314
 31
0.0
  0
LWPOLYLINE
  5
639
330
1F
100
AcDbEntity
  8
0
  6
Continuous
 62
     7
370
    25
100
AcDbPolyline
 90
       12
 70
   128
 43
0.0
 10
243.8540699718
 20
177.224947314
 10
244.5656432597
 20
177.2117765502
 10
245.2627326188
 20
177.1725287543
 10
245.9311446933
 20
177.108003001
 10
246.5572728602
 20
177.0195143179
 10
247.1283729014
 20
176.9088657454
 10
247.6328181861
 20
176.7783054964
 10
248.060336226
 20
176.6304934279
 10
248.4022284684
 20
176.4684395746
 10
248.6515342084
 20
176.2954426811
 10
248.8031758753
 20
176.115021284
 10
248.8540689287
 20
175.9308522449
  0
LINE
  5
63A
330
1F
100
AcDbEntity
  8
0
  6
Continuous
 62
     7
370
    25
100
AcDbLine
 10
248.8540689287
 20
175.9308522449
 30
0.0
 11
248.8540689287
 21
156.583745207
 31
0.0
  0
LINE
  5
63B
330
1F
100
AcDbEntity
  8
0
  6
Continuous
 62
     7
370
    25
100
AcDbLine
 10
197.8540698824
 20
156.583745207
 30
0.0
 11
248.8540689287
 21
156.583745207
 31
0.0
  0
LINE
  5
63C
330
1F
100
AcDbEntity
  8
0
  6
Continuous
 62
     7
370
    25
100
AcDbLine
 10
197.8540698824
 20
175.9308522449
 30
0.0
 11
197.8540698824
 21
178.4422604249
 31
0.0
  0
LWPOLYLINE
  5
63D
330
1F
100
AcDbEntity
  8
0
  6
Continuous
 62
     7
370
    25
100
AcDbPolyline
 90
       12
 70
   128
 43
0.0
 10
197.8540698824
 20
178.4422604249
 10
197.9049629358
 20
178.626429464
 10
198.0566046027
 20
178.8068489984
 10
198.3059103427
 20
178.979845892
 10
198.6478025851
 20
179.1419016079
 10
199.0753206251
 20
179.2897118137
 10
199.5797659097
 20
179.4202720628
 10
200.1508659509
 20
179.5309224979
 10
200.7769941179
 20
179.619411181
 10
201.4454061923
 20
179.6839350716
 10
202.1424955515
 20
179.7231828675
 10
202.8540688393
 20
179.736355494
  0
LINE
  5
63E
330
1F
100
AcDbEntity
  8
0
  6
Continuous
 62
     7
370
    25
100
AcDbLine
 10
202.8540688393
 20
179.736355494
 30
0.0
 11
202.8540688393
 21
177.224947314
 31
0.0
  0
LINE
  5
63F
330
1F
100
AcDbEntity
  8
0
  6
Continuous
 62
     7
370
    25
100
AcDbLine
 10
243.8540699718
 20
179.736355494
 30
0.0
 11
243.8540699718
 21
177.224947314
 31
0.0
  0
LWPOLYLINE
  5
640
330
1F
100
AcDbEntity
  8
0
  6
Continuous
 62
     7
370
    25
100
AcDbPolyline
 90
       12
 70
   128
 43
0.0
 10
248.8540689287
 20
178.4422604249
 10
248.8031758753
 20
178.626429464
 10
248.6515342084
 20
178.8068489984
 10
248.4022284684
 20
178.979845892
 10
248.060336226
 20
179.1419016079
 10
247.6328181861
 20
179.2897118137
 10
247.1283729014
 20
179.4202720628
 10
246.5572728602
 20
179.5309224979
 10
245.9311446933
 20
179.619411181
 10
245.2627326188
 20
179.6839350716
 10
244.5656432597
 20
179.7231828675
 10
243.8540699718
 20
179.736355494
  0
LINE
  5
641
330
1F
100
AcDbEntity
  8
0
  6
Continuous
 62
     7
370
    25
100
AcDbLine
 10
248.8540689287
 20
175.9308522449
 30
0.0
 11
248.8540689287
 21
178.4422604249
 31
0.0
  0
LINE
  5
642
330
1F
100
AcDbEntity
  8
0
  6
Continuous
 62
     7
370
    25
100
AcDbLine
 10
202.8540688393
 20
179.736355494
 30
0.0
 11
243.8540699718
 21
179.736355494
 31
0.0
  0
LINE
  5
643
330
1F
100
AcDbEntity
  8
0
  6
Continuous
 62
     7
370
    25
100
AcDbLine
 10
197.8540698824
 20
156.583745207
 30
0.0
 11
197.8540698824
 21
156.390560034
 31
0.0
  0
LINE
  5
644
330
1F
100
AcDbEntity
  8
0
  6
Continuous
 62
     7
370
    25
100
AcDbLine
 10
248.8540689287
 20
156.583745207
 30
0.0
 11
248.8540689287
 21
156.390560034
 31
0.0
  0
LINE
  5
645
330
1F
100
AcDbEntity
  8
0
  6
Continuous
 62
     7
370
    25
100
AcDbLine
 10
197.8540698824
 20
156.390560034
 30
0.0
 11
248.8540689287
 21
156.390560034
 31
0.0
  0
CIRCLE
  5
646
330
1F
100
AcDbEntity
  8
0
  6
Continuous
 62
     7
370
    25
100
AcDbCircle
 10
263.3540694056
 20
121.6390755788
 30
0.0
 40
2.499999999999972
  0
CIRCLE
  5
647
330
1F
100
AcDbEntity
  8
0
  6
Continuous
 62
     7
370
    25
100
AcDbCircle
 10
263.3540694056
 20
146.6390755788
 30
0.0
 40
2.5
  0
ARC
  5
648
330
1F
100
AcDbEntity
  8
0
  6
Continuous
 62
     7
370
    25
100
AcDbCircle
 10
268.3540694056
 20
151.3905600125
 30
0.0
 40
5.0
100
AcDbArc
 50
0.0
 51
90.0
  0
ARC
  5
649
330
1F
100
AcDbEntity
  8
0
  6
Continuous
 62
     7
370
    25
100
AcDbCircle
 10
268.3540694056
 20
119.1390755788
 30
0.0
 40
5.0
100
AcDbArc
 50
270.0
 51
0.0
  0
LINE
  5
64A
330
1F
100
AcDbEntity
  8
0
  6
Continuous
 62
     7
370
    25
100
AcDbLine
 10
178.3540676174
 20
114.1390764967
 30
0.0
 11
268.3540711937
 21
114.1390764967
 31
0.0
  0
ARC
  5
64B
330
1F
100
AcDbEntity
  8
0
  6
Continuous
 62
     7
370
    25
100
AcDbCircle
 10
178.3540694056
 20
119.1390755788
 30
0.0
 40
5.0
100
AcDbArc
 50
180.0
 51
270.0
  0
LINE
  5
64C
330
1F
100
AcDbEntity
  8
0
  6
Continuous
 62
     7
370
    25
100
AcDbLine
 10
173.3540686605
 20
119.1390754537
 30
0.0
 11
173.3540686605
 21
151.3905601458
 31
0.0
  0
CIRCLE
  5
64D
330
1F
100
AcDbEntity
  8
0
  6
Continuous
 62
     7
370
    25
100
AcDbCircle
 10
183.3540694056
 20
121.6390755788
 30
0.0
 40
2.499999999999972
  0
CIRCLE
  5
64E
330
1F
100
AcDbEntity
  8
0
  6
Continuous
 62
     7
370
    25
100
AcDbCircle
 10
183.3540694056
 20
146.6390755788
 30
0.0
 40
2.5
  0
ARC
  5
64F
330
1F
100
AcDbEntity
  8
0
  6
Continuous
 62
     7
370
    25
100
AcDbCircle
 10
178.3540694056
 20
151.3905600125
 30
0.0
 40
5.0
100
AcDbArc
 50
90.0
 51
180.0
  0
LINE
  5
650
330
1F
100
AcDbEntity
  8
0
  6
Continuous
 62
     7
370
    25
100
AcDbLine
 10
268.3540711937
 20
156.390560034
 30
0.0
 11
248.8540689287
 21
156.390560034
 31
0.0
  0
LINE
  5
651
330
1F
100
AcDbEntity
  8
0
  6
Continuous
 62
     7
370
    25
100
AcDbLine
 10
273.3540701506
 20
119.1390754537
 30
0.0
 11
273.3540701506
 21
151.3905601458
 31
0.0
  0
LINE
  5
652
330
1F
100
AcDbEntity
  8
0
  6
Continuous
 62
     7
370
    25
100
AcDbLine
 10
178.3540676174
 20
156.390560034
 30
0.0
 11
197.8540698824
 21
156.390560034
 31
0.0
  0
DIMENSION
  5
653
330
1F
100
AcDbEntity
  8
FORMAT
100
AcDbDimension
  2
_D_10
 10
125.3540694056
 20
114.1390755788
 30
0.0
 11
125.3540694056
 21
146.5733713622
 31
0.0
 70
   160
  1
<>
 71
     2
 42
-1.0
  3
SLDDIMSTYLE1
100
AcDbAlignedDimension
 13
202.8540694056
 23
179.7363553727
 33
0.0
 14
178.3540694056
 24
114.1390755788
 34
0.0
 50
90.0
100
AcDbRotatedDimension
  0
DIMENSION
  5
65D
330
1F
100
AcDbEntity
  8
FORMAT
100
AcDbDimension
  2
_D_11
 10
273.3540694056
 20
66.1390755788
 30
0.0
 11
222.3275771719
 21
66.1390755788
 31
0.0
 70
   160
  1
<>
 71
     2
 42
-1.0
  3
SLDDIMSTYLE0
100
AcDbAlignedDimension
 13
173.3540694056
 23
119.1390755788
 33
0.0
 14
273.3540694056
 24
119.1390755788
 34
0.0
100
AcDbRotatedDimension
  0
INSERT
  5
672
330
1F
100
AcDbEntity
  8
FORMAT
100
AcDbBlockReference
  2
SW_CENTERMARKSYMBOL_19
 10
183.3540694056
 20
121.6390755788
 30
0.0
  0
INSERT
  5
67E
330
1F
100
AcDbEntity
  8
FORMAT
100
AcDbBlockReference
  2
SW_CENTERMARKSYMBOL_20
 10
183.3540694056
 20
146.6390755788
 30
0.0
  0
INSERT
  5
68A
330
1F
100
AcDbEntity
  8
FORMAT
100
AcDbBlockReference
  2
SW_CENTERMARKSYMBOL_21
 10
263.3540694056
 20
121.6390755788
 30
0.0
  0
INSERT
  5
696
330
1F
100
AcDbEntity
  8
FORMAT
100
AcDbBlockReference
  2
SW_CENTERMARKSYMBOL_22
 10
263.3540694056
 20
146.6390755788
 30
0.0
  0
LWPOLYLINE
  5
697
330
1F
100
AcDbEntity
  8
0
  6
Continuous
 62
     7
370
    25
100
AcDbPolyline
 90
       42
 70
   128
 43
0.0
 10
223.3540694056
 20
244.2178530865
 10
224.0028288857
 20
244.2659614854
 10
224.6363819636
 20
244.4091690951
 10
225.2398787591
 20
244.6441082531
 10
225.7991737047
 20
244.9652878814
 10
226.3011575037
 20
245.3651605421
 10
226.7340641761
 20
245.8343683057
 10
227.0877464966
 20
246.3619066649
 10
227.3539145303
 20
246.9354151064
 10
227.5263298129
 20
247.5414453321
 10
227.6009506372
 20
248.1657965356
 10
227.5760284451
 20
248.7938320511
 10
227.4521467102
 20
249.4108332568
 10
227.232209762
 20
250.0023385757
 10
226.9213724708
 20
250.5544824773
 10
226.5269205732
 20
251.054323303
 10
226.058099774
 20
251.4901412898
 10
225.5258987484
 20
251.851729142
 10
224.9427919801
 20
252.1306043738
 10
224.3224468025
 20
252.3202365511
 10
223.6794037221
 20
252.4161776775
 10
223.028735089
 20
252.4161776775
 10
222.3856920086
 20
252.3202365511
 10
221.765346831
 20
252.1306043738
 10
221.1822400627
 20
251.851729142
 10
220.6500390371
 20
251.4901412898
 10
220.1812182379
 20
251.054323303
 10
219.7867663404
 20
250.5544824773
 10
219.4759290492
 20
250.0023385757
 10
219.2559921009
 20
249.4108332568
 10
219.132110366
 20
248.7938320511
 10
219.1071881739
 20
248.1657965356
 10
219.1818089982
 20
247.5414453321
 10
219.3542242808
 20
246.9354151064
 10
219.6203923145
 20
246.3619066649
 10
219.9740746351
 20
245.8343683057
 10
220.4069813074
 20
245.3651605421
 10
220.9089651064
 20
244.9652878814
 10
221.468260052
 20
244.6441082531
 10
222.0717568475
 20
244.4091690951
 10
222.7053099255
 20
244.2659614854
 10
223.3540694056
 20
244.2178530865
  0
ARC
  5
698
330
1F
100
AcDbEntity
  8
0
  6
Continuous
 62
     7
370
    25
100
AcDbCircle
 10
243.9298565882
 20
236.826840532
 30
0.0
 40
4.925126979651301
100
AcDbArc
 50
269.1183121452
 51
358.8957675212
  0
LINE
  5
699
330
1F
100
AcDbEntity
  8
0
  6
Continuous
 62
     7
370
    25
100
AcDbLine
 10
202.8540688393
 20
231.9022966796
 30
0.0
 11
243.8540699718
 21
231.9022966796
 31
0.0
  0
ARC
  5
69A
330
1F
100
AcDbEntity
  8
0
  6
Continuous
 62
     7
370
    25
100
AcDbCircle
 10
202.778282223
 20
236.826840532
 30
0.0
 40
4.925126979651301
100
AcDbArc
 50
181.1042324788
 51
270.8816878548
  0
LINE
  5
69B
330
1F
100
AcDbEntity
  8
0
  6
Continuous
 62
     7
370
    25
100
AcDbLine
 10
197.8540698824
 20
236.7319269353
 30
0.0
 11
197.8540698824
 21
308.936316079
 31
0.0
  0
LINE
  5
69C
330
1F
100
AcDbEntity
  8
0
  6
Continuous
 62
     7
370
    25
100
AcDbLine
 10
197.8540698824
 20
308.936316079
 30
0.0
 11
248.8540689287
 21
308.936316079
 31
0.0
  0
LINE
  5
69D
330
1F
100
AcDbEntity
  8
0
  6
Continuous
 62
     7
370
    25
100
AcDbLine
 10
248.8540689287
 20
236.7319269353
 30
0.0
 11
248.8540689287
 21
308.936316079
 31
0.0
  0
LINE
  5
69E
330
1F
100
AcDbEntity
  8
0
  6
Continuous
 62
     7
370
    25
100
AcDbLine
 10
197.8540698824
 20
236.0589979463
 30
0.0
 11
197.8540698824
 21
236.7319269353
 31
0.0
  0
LINE
  5
69F
330
1F
100
AcDbEntity
  8
0
  6
Continuous
 62
     7
370
    25
100
AcDbLine
 10
202.8540688393
 20
231.9022966796
 30
0.0
 11
202.8540688393
 21
231.2293676906
 31
0.0
  0
ARC
  5
6A0
330
1F
100
AcDbEntity
  8
0
  6
Continuous
 62
     7
370
    25
100
AcDbCircle
 10
202.7624002532
 20
236.1374693253
 30
0.0
 40
4.908957606901422
100
AcDbArc
 50
180.9159317911
 51
271.0699885425
  0
LINE
  5
6A1
330
1F
100
AcDbEntity
  8
0
  6
Continuous
 62
     7
370
    25
100
AcDbLine
 10
243.8540699718
 20
231.9022966796
 30
0.0
 11
243.8540699718
 21
231.2293676906
 31
0.0
  0
LINE
  5
6A2
330
1F
100
AcDbEntity
  8
0
  6
Continuous
 62
     7
370
    25
100
AcDbLine
 10
248.8540689287
 20
236.0589979463
 30
0.0
 11
248.8540689287
 21
236.7319269353
 31
0.0
  0
ARC
  5
6A3
330
1F
100
AcDbEntity
  8
0
  6
Continuous
 62
     7
370
    25
100
AcDbCircle
 10
243.9457385579
 20
236.1374693253
 30
0.0
 40
4.908957606901395
100
AcDbArc
 50
268.9300114575
 51
359.0840682089
  0
LINE
  5
6A4
330
1F
100
AcDbEntity
  8
0
  6
Continuous
 62
     7
370
    25
100
AcDbLine
 10
202.8540688393
 20
231.2293676906
 30
0.0
 11
243.8540699718
 21
231.2293676906
 31
0.0
  0
ARC
  5
6A5
330
1F
100
AcDbEntity
  8
0
  6
Continuous
 62
     7
370
    25
100
AcDbCircle
 10
223.4196051517
 20
247.5643158556
 30
0.0
 40
4.191489067686254
100
AcDbArc
 50
5.7818718633
 51
90.8958808213
  0
ARC
  5
6A6
330
1F
100
AcDbEntity
  8
0
  6
Continuous
 62
     7
370
    25
100
AcDbCircle
 10
223.2885336595
 20
247.5643158556
 30
0.0
 40
4.191489067686319
100
AcDbArc
 50
89.1041191787
 51
174.2181281367
  0
LINE
  5
6A7
330
1F
100
AcDbEntity
  8
0
  6
Continuous
 62
     7
370
    25
100
AcDbLine
 10
197.8540698824
 20
311.0116226845
 30
0.0
 11
248.8540689287
 21
311.0116226845
 31
0.0
  0
LINE
  5
6A8
330
1F
100
AcDbEntity
  8
0
  6
Continuous
 62
     7
370
    25
100
AcDbLine
 10
248.8540689287
 20
308.936316079
 30
0.0
 11
248.8540689287
 21
311.0116226845
 31
0.0
  0
LINE
  5
6A9
330
1F
100
AcDbEntity
  8
0
  6
Continuous
 62
     7
370
    25
100
AcDbLine
 10
197.8540698824
 20
308.936316079
 30
0.0
 11
197.8540698824
 21
311.0116226845
 31
0.0
  0
LINE
  5
6AA
330
1F
100
AcDbEntity
  8
0
  6
Continuous
 62
     7
370
    25
100
AcDbLine
 10
178.3540676174
 20
308.4116226775
 30
0.0
 11
197.8540698824
 21
308.4116226775
 31
0.0
  0
LINE
  5
6AB
330
1F
100
AcDbEntity
  8
0
  6
Continuous
 62
     7
370
    25
100
AcDbLine
 10
178.3540676174
 20
311.0116226845
 30
0.0
 11
178.3540676174
 21
308.4116226775
 31
0.0
  0
LINE
  5
6AC
330
1F
100
AcDbEntity
  8
0
  6
Continuous
 62
     7
370
    25
100
AcDbLine
 10
178.3540676174
 20
311.0116226845
 30
0.0
 11
197.8540698824
 21
311.0116226845
 31
0.0
  0
LINE
  5
6AD
330
1F
100
AcDbEntity
  8
0
  6
Continuous
 62
     7
370
    25
100
AcDbLine
 10
268.3540711937
 20
311.0116226845
 30
0.0
 11
268.3540711937
 21
308.4116226775
 31
0.0
  0
LINE
  5
6AE
330
1F
100
AcDbEntity
  8
0
  6
Continuous
 62
     7
370
    25
100
AcDbLine
 10
268.3540711937
 20
308.4116226775
 30
0.0
 11
248.8540689287
 21
308.4116226775
 31
0.0
  0
LINE
  5
6AF
330
1F
100
AcDbEntity
  8
0
  6
Continuous
 62
     7
370
    25
100
AcDbLine
 10
268.3540711937
 20
311.0116226845
 30
0.0
 11
248.8540689287
 21
311.0116226845
 31
0.0
  0
LINE
  5
6B0
330
1F
100
AcDbEntity
  8
0
  6
Continuous
 62
     7
370
    25
100
AcDbLine
 10
273.3540701506
 20
308.4116226775
 30
0.0
 11
273.3540701506
 21
311.0116226845
 31
0.0
  0
LINE
  5
6B1
330
1F
100
AcDbEntity
  8
0
  6
Continuous
 62
     7
370
    25
100
AcDbLine
 10
268.3540711937
 20
308.4116226775
 30
0.0
 11
273.3540701506
 21
308.4116226775
 31
0.0
  0
LINE
  5
6B2
330
1F
100
AcDbEntity
  8
0
  6
Continuous
 62
     7
370
    25
100
AcDbLine
 10
273.3540701506
 20
311.0116226845
 30
0.0
 11
268.3540711937
 21
311.0116226845
 31
0.0
  0
LINE
  5
6B3
330
1F
100
AcDbEntity
  8
0
  6
Continuous
 62
     7
370
    25
100
AcDbLine
 10
173.3540686605
 20
308.4116226775
 30
0.0
 11
173.3540686605
 21
311.0116226845
 31
0.0
  0
LINE
  5
6B4
330
1F
100
AcDbEntity
  8
0
  6
Continuous
 62
     7
370
    25
100
AcDbLine
 10
178.3540676174
 20
308.4116226775
 30
0.0
 11
173.3540686605
 21
308.4116226775
 31
0.0
  0
LINE
  5
6B5
330
1F
100
AcDbEntity
  8
0
  6
Continuous
 62
     7
370
    25
100
AcDbLine
 10
173.3540686605
 20
311.0116226845
 30
0.0
 11
178.3540676174
 21
311.0116226845
 31
0.0
  0
INSERT
  5
6BB
330
1F
100
AcDbEntity
  8
FORMAT
100
AcDbBlockReference
  2
SW_NOTE_0_10
 10
269.7
 20
203.9559518487
 30
0.0
  0
LEADER
  5
6BD
330
1F
100
AcDbEntity
  8
FORMAT
100
AcDbLeader
  3
SLDDIMSTYLE2
 76
     2
 10
227.2870029999
 20
246.7671662025
 30
0.0
 10
269.7
 20
203.9559518487
 30
0.0
  0
LINE
  5
6BE
330
1F
100
AcDbEntity
  8
0
  6
Continuous
 62
     7
370
    25
100
AcDbLine
 10
426.0067007465
 20
156.390560034
 30
0.0
 11
423.4067007395
 21
156.390560034
 31
0.0
  0
LINE
  5
6BF
330
1F
100
AcDbEntity
  8
0
  6
Continuous
 62
     7
370
    25
100
AcDbLine
 10
426.0067007465
 20
151.3905601458
 30
0.0
 11
426.0067007465
 21
156.390560034
 31
0.0
  0
LINE
  5
6C0
330
1F
100
AcDbEntity
  8
0
  6
Continuous
 62
     7
370
    25
100
AcDbLine
 10
423.4067007395
 20
151.3905601458
 30
0.0
 11
426.0067007465
 21
151.3905601458
 31
0.0
  0
LINE
  5
6C1
330
1F
100
AcDbEntity
  8
0
  6
Continuous
 62
     7
370
    25
100
AcDbLine
 10
423.4067007395
 20
156.390560034
 30
0.0
 11
423.4067007395
 21
151.3905601458
 31
0.0
  0
LINE
  5
6C2
330
1F
100
AcDbEntity
  8
0
  6
Continuous
 62
     7
370
    25
100
AcDbLine
 10
426.0067007465
 20
119.1390754537
 30
0.0
 11
423.4067007395
 21
119.1390754537
 31
0.0
  0
LINE
  5
6C3
330
1F
100
AcDbEntity
  8
0
  6
Continuous
 62
     7
370
    25
100
AcDbLine
 10
423.4067007395
 20
119.1390754537
 30
0.0
 11
423.4067007395
 21
151.3905601458
 31
0.0
  0
LINE
  5
6C4
330
1F
100
AcDbEntity
  8
0
  6
Continuous
 62
     7
370
    25
100
AcDbLine
 10
426.0067007465
 20
151.3905601458
 30
0.0
 11
426.0067007465
 21
119.1390754537
 31
0.0
  0
LINE
  5
6C5
330
1F
100
AcDbEntity
  8
0
  6
Continuous
 62
     7
370
    25
100
AcDbLine
 10
423.4067007395
 20
114.1390764967
 30
0.0
 11
426.0067007465
 21
114.1390764967
 31
0.0
  0
LINE
  5
6C6
330
1F
100
AcDbEntity
  8
0
  6
Continuous
 62
     7
370
    25
100
AcDbLine
 10
423.4067007395
 20
119.1390754537
 30
0.0
 11
423.4067007395
 21
114.1390764967
 31
0.0
  0
LINE
  5
6C7
330
1F
100
AcDbEntity
  8
0
  6
Continuous
 62
     7
370
    25
100
AcDbLine
 10
426.0067007465
 20
114.1390764967
 30
0.0
 11
426.0067007465
 21
119.1390754537
 31
0.0
  0
ARC
  5
6C8
330
1F
100
AcDbEntity
  8
0
  6
Continuous
 62
     7
370
    25
100
AcDbCircle
 10
423.2067007465
 20
156.3905600125
 30
0.0
 40
2.800000000000068
100
AcDbArc
 50
0.0
 51
75.0
  0
ARC
  5
6C9
330
1F
100
AcDbEntity
  8
0
  6
Continuous
 62
     7
370
    25
100
AcDbCircle
 10
423.2067007465
 20
156.3905600125
 30
0.0
 40
0.1999999999999985
100
AcDbArc
 50
0.0
 51
75.0
  0
LINE
  5
6CA
330
1F
100
AcDbEntity
  8
0
  6
Continuous
 62
     7
370
    25
100
AcDbLine
 10
423.931394141
 20
159.0951523392
 30
0.0
 11
423.2584644536
 21
156.583745207
 31
0.0
  0
LINE
  5
6CB
330
1F
100
AcDbEntity
  8
0
  6
Continuous
 62
     7
370
    25
100
AcDbLine
 10
351.0540760083
 20
175.9308522449
 30
0.0
 11
351.7270049973
 21
178.4422604249
 31
0.0
  0
LINE
  5
6CC
330
1F
100
AcDbEntity
  8
0
  6
Continuous
 62
     7
370
    25
100
AcDbLine
 10
351.7270049973
 20
178.4422604249
 30
0.0
 11
423.931394141
 21
159.0951523392
 31
0.0
  0
LINE
  5
6CD
330
1F
100
AcDbEntity
  8
0
  6
Continuous
 62
     7
370
    25
100
AcDbLine
 10
351.0540760083
 20
175.9308522449
 30
0.0
 11
423.2584644536
 21
156.583745207
 31
0.0
  0
LINE
  5
6CE
330
1F
100
AcDbEntity
  8
0
  6
Continuous
 62
     7
370
    25
100
AcDbLine
 10
346.8973747416
 20
179.736355494
 30
0.0
 11
346.2244457526
 21
177.224947314
 31
0.0
  0
LWPOLYLINE
  5
6CF
330
1F
100
AcDbEntity
  8
0
  6
Continuous
 62
     7
370
    25
100
AcDbPolyline
 90
       12
 70
   128
 43
0.0
 10
346.2244457526
 20
177.224947314
 10
346.2736046834
 20
177.2117765502
 10
346.4200830979
 20
177.1725287543
 10
346.6608933134
 20
177.108003001
 10
346.9911328478
 20
177.0195143179
 10
347.404088728
 20
176.9088657454
 10
347.8913417978
 20
176.7783054964
 10
348.4429827852
 20
176.6304934279
 10
349.0477762146
 20
176.4684395746
 10
349.6934137268
 20
176.2954426811
 10
350.3667450471
 20
176.115021284
 10
351.0540760083
 20
175.9308522449
  0
LWPOLYLINE
  5
6D0
330
1F
100
AcDbEntity
  8
0
  6
Continuous
 62
     7
370
    25
100
AcDbPolyline
 90
       12
 70
   128
 43
0.0
 10
351.7270049973
 20
178.4422604249
 10
351.039674036
 20
178.626429464
 10
350.3663427158
 20
178.8068489984
 10
349.7207052035
 20
178.979845892
 10
349.1159117742
 20
179.1419016079
 10
348.5642707868
 20
179.2897118137
 10
348.0770177169
 20
179.4202720628
 10
347.6640618367
 20
179.5309224979
 10
347.3338223024
 20
179.619411181
 10
347.0930120869
 20
179.6839350716
 10
346.9465336723
 20
179.7231828675
 10
346.8973747416
 20
179.736355494
  0
DIMENSION
  5
6D1
330
1F
100
AcDbEntity
  8
FORMAT
100
AcDbDimension
  2
_D_12
 10
426.0067007465
 20
66.1390755788
 30
0.0
 11
386.9688335909
 21
66.1390755788
 31
0.0
 70
   160
  1
<>
 71
     2
 42
-1.0
  3
SLDDIMSTYLE1
100
AcDbAlignedDimension
 13
346.2244460562
 23
177.2249482244
 33
0.0
 14
426.0067007465
 24
114.1390755788
 34
0.0
 50
0.0
100
AcDbRotatedDimension
  0
DIMENSION
  5
6DB
330
1F
100
AcDbEntity
  8
FORMAT
100
AcDbDimension
  2
_D_13
 10
423.4067007465
 20
114.1390755788
 30
0.0
 11
395.0310929509
 21
137.1316347518
 31
0.0
 70
   162
  1
<>
 71
     1
 42
-1.0
  3
SLDDIMSTYLE3
100
AcDb2LineAngularDimension
 13
423.2584645556
 23
156.5837451777
 33
0.0
 14
346.2244460562
 24
177.2249482244
 34
0.0
 15
423.4067007465
 25
156.3905600125
 35
0.0
 16
396.130847976
 26
135.6145274591
 36
0.0
  0
ENDSEC
  0
SECTION
  2
OBJECTS
  0
DICTIONARY
  5
C
330
0
100
AcDbDictionary
281
     1
  3
ACAD_GROUP
350
D
  3
ACAD_LAYOUT
350
1A
  3
ACAD_MLINESTYLE
350
17
  3
ACAD_PLOTSETTINGS
350
19
  3
ACAD_PLOTSTYLENAME
350
E
  3
ACAD_SCALELIST
350
47
  0
DICTIONARY
  5
D
102
{ACAD_REACTORS
330
C
102
}
330
C
100
AcDbDictionary
281
     1
  0
DICTIONARY
  5
1A
102
{ACAD_REACTORS
330
C
102
}
330
C
100
AcDbDictionary
281
     1
  3
Layout1
350
1E
  3
Layout2
350
26
  3
Model
350
22
  0
DICTIONARY
  5
17
102
{ACAD_REACTORS
330
C
102
}
330
C
100
AcDbDictionary
281
     1
  3
Standard
350
18
  0
DICTIONARY
  5
19
102
{ACAD_REACTORS
330
C
102
}
330
C
100
AcDbDictionary
281
     1
  0
ACDBDICTIONARYWDFLT
  5
E
102
{ACAD_REACTORS
330
C
102
}
330
C
100
AcDbDictionary
281
     1
  3
Normal
350
F
100
AcDbDictionaryWithDefault
340
F
  0
DICTIONARY
  5
47
102
{ACAD_REACTORS
330
C
102
}
330
C
100
AcDbDictionary
281
     1
  3
A0
350
48
  3
A1
350
49
  3
A2
350
4A
  3
A3
350
4B
  3
A4
350
4C
  3
A5
350
4D
  3
A6
350
4E
  3
A7
350
4F
  3
A8
350
50
  3
A9
350
51
  3
B0
350
52
  3
B1
350
53
  3
B2
350
54
  3
B3
350
55
  3
B4
350
56
  3
B5
350
57
  3
B6
350
58
  3
B7
350
59
  3
B8
350
5A
  3
B9
350
5B
  3
C0
350
5C
  3
C1
350
5D
  3
C2
350
5E
  3
C3
350
5F
  3
C4
350
60
  3
C5
350
61
  3
C6
350
62
  3
C7
350
63
  3
C8
350
64
  3
C9
350
65
  3
D0
350
66
  3
D1
350
67
  3
D2
350
68
  0
LAYOUT
  5
1E
102
{ACAD_REACTORS
330
1A
102
}
330
1A
100
AcDbPlotSettings
  1

  2
none_device
  4

  6

 40
0.0
 41
0.0
 42
0.0
 43
0.0
 44
0.0
 45
0.0
 46
0.0
 47
0.0
 48
0.0
 49
0.0
140
0.0
141
0.0
142
1.0
143
1.0
 70
   688
 72
     1
 73
     0
 74
     5
  7

 75
    16
147
1.0
148
0.0
149
0.0
100
AcDbLayout
  1
Layout1
 70
     1
 71
     1
 10
0.0
 20
0.0
 11
420.0
 21
297.0
 12
0.0
 22
0.0
 32
0.0
 14
1.0000000000E+20
 24
1.0000000000E+20
 34
1.0000000000E+20
 15
-1.0000000000E+20
 25
-1.0000000000E+20
 35
-1.0000000000E+20
146
0.0
 13
0.0
 23
0.0
 33
0.0
 16
1.0
 26
0.0
 36
0.0
 17
0.0
 27
1.0
 37
0.0
 76
     0
330
1B
  0
LAYOUT
  5
26
102
{ACAD_REACTORS
330
1A
102
}
330
1A
100
AcDbPlotSettings
  1

  2
none_device
  4

  6

 40
0.0
 41
0.0
 42
0.0
 43
0.0
 44
0.0
 45
0.0
 46
0.0
 47
0.0
 48
0.0
 49
0.0
140
0.0
141
0.0
142
1.0
143
1.0
 70
   688
 72
     1
 73
     0
 74
     5
  7

 75
    16
147
1.0
148
0.0
149
0.0
100
AcDbLayout
  1
Layout2
 70
     1
 71
     2
 10
0.0
 20
0.0
 11
0.0
 21
0.0
 12
0.0
 22
0.0
 32
0.0
 14
0.0
 24
0.0
 34
0.0
 15
0.0
 25
0.0
 35
0.0
146
0.0
 13
0.0
 23
0.0
 33
0.0
 16
1.0
 26
0.0
 36
0.0
 17
0.0
 27
1.0
 37
0.0
 76
     0
330
23
  0
LAYOUT
  5
22
102
{ACAD_REACTORS
330
1A
102
}
330
1A
100
AcDbPlotSettings
  1

  2
none_device
  4
Letter_(8.50_x_11.00_Inches)
  6

 40
6.35
 41
6.35
 42
6.35000508
 43
6.35000508
 44
215.9
 45
279.4
 46
0.0
 47
0.0
 48
0.0
 49
0.0
140
0.0
141
0.0
142
1.0
143
1.0
 70
  1712
 72
     1
 73
     0
 74
     0
  7

 75
     0
147
1.0
148
0.0
149
0.0
100
AcDbLayout
  1
Model
 70
     1
 71
     0
 10
0.0
 20
0.0
 11
1295.4
 21
838.2
 12
0.0
 22
0.0
 32
0.0
 14
0.0
 24
0.0
 34
0.0
 15
1295.4
 25
838.2
 35
0.0
146
0.0
 13
0.0
 23
0.0
 33
0.0
 16
1.0
 26
0.0
 36
0.0
 17
0.0
 27
1.0
 37
0.0
 76
     0
330
1F
331
29
  0
MLINESTYLE
  5
18
102
{ACAD_REACTORS
330
17
102
}
330
17
100
AcDbMlineStyle
  2
Standard
 70
     0
  3

 62
   256
 51
90.0
 52
90.0
 71
     2
 49
0.5
 62
   256
  6
BYLAYER
 49
-0.5
 62
   256
  6
BYLAYER
  0
ACDBPLACEHOLDER
  5
F
102
{ACAD_REACTORS
330
E
102
}
330
E
  0
SCALE
  5
48
102
{ACAD_REACTORS
330
47
102
}
330
47
100
AcDbScale
 70
     0
300
1:1
140
1.0
141
1.0
290
     1
  0
SCALE
  5
49
102
{ACAD_REACTORS
330
47
102
}
330
47
100
AcDbScale
 70
     0
300
1:2
140
1.0
141
2.0
290
     0
  0
SCALE
  5
4A
102
{ACAD_REACTORS
330
47
102
}
330
47
100
AcDbScale
 70
     0
300
1:4
140
1.0
141
4.0
290
     0
  0
SCALE
  5
4B
102
{ACAD_REACTORS
330
47
102
}
330
47
100
AcDbScale
 70
     0
300
1:5
140
1.0
141
5.0
290
     0
  0
SCALE
  5
4C
102
{ACAD_REACTORS
330
47
102
}
330
47
100
AcDbScale
 70
     0
300
1:8
140
1.0
141
8.0
290
     0
  0
SCALE
  5
4D
102
{ACAD_REACTORS
330
47
102
}
330
47
100
AcDbScale
 70
     0
300
1:10
140
1.0
141
10.0
290
     0
  0
SCALE
  5
4E
102
{ACAD_REACTORS
330
47
102
}
330
47
100
AcDbScale
 70
     0
300
1:16
140
1.0
141
16.0
290
     0
  0
SCALE
  5
4F
102
{ACAD_REACTORS
330
47
102
}
330
47
100
AcDbScale
 70
     0
300
1:20
140
1.0
141
20.0
290
     0
  0
SCALE
  5
50
102
{ACAD_REACTORS
330
47
102
}
330
47
100
AcDbScale
 70
     0
300
1:30
140
1.0
141
30.0
290
     0
  0
SCALE
  5
51
102
{ACAD_REACTORS
330
47
102
}
330
47
100
AcDbScale
 70
     0
300
1:40
140
1.0
141
40.0
290
     0
  0
SCALE
  5
52
102
{ACAD_REACTORS
330
47
102
}
330
47
100
AcDbScale
 70
     0
300
1:50
140
1.0
141
50.0
290
     0
  0
SCALE
  5
53
102
{ACAD_REACTORS
330
47
102
}
330
47
100
AcDbScale
 70
     0
300
1:100
140
1.0
141
100.0
290
     0
  0
SCALE
  5
54
102
{ACAD_REACTORS
330
47
102
}
330
47
100
AcDbScale
 70
     0
300
2:1
140
2.0
141
1.0
290
     0
  0
SCALE
  5
55
102
{ACAD_REACTORS
330
47
102
}
330
47
100
AcDbScale
 70
     0
300
4:1
140
4.0
141
1.0
290
     0
  0
SCALE
  5
56
102
{ACAD_REACTORS
330
47
102
}
330
47
100
AcDbScale
 70
     0
300
8:1
140
8.0
141
1.0
290
     0
  0
SCALE
  5
57
102
{ACAD_REACTORS
330
47
102
}
330
47
100
AcDbScale
 70
     0
300
10:1
140
10.0
141
1.0
290
     0
  0
SCALE
  5
58
102
{ACAD_REACTORS
330
47
102
}
330
47
100
AcDbScale
 70
     0
300
100:1
140
100.0
141
1.0
290
     0
  0
SCALE
  5
59
102
{ACAD_REACTORS
330
47
102
}
330
47
100
AcDbScale
 70
     0
300
1/128" = 1'-0"
140
0.0078125
141
12.0
290
     0
  0
SCALE
  5
5A
102
{ACAD_REACTORS
330
47
102
}
330
47
100
AcDbScale
 70
     0
300
1/64" = 1'-0"
140
0.015625
141
12.0
290
     0
  0
SCALE
  5
5B
102
{ACAD_REACTORS
330
47
102
}
330
47
100
AcDbScale
 70
     0
300
1/32" = 1'-0"
140
0.03125
141
12.0
290
     0
  0
SCALE
  5
5C
102
{ACAD_REACTORS
330
47
102
}
330
47
100
AcDbScale
 70
     0
300
1/16" = 1'-0"
140
0.0625
141
12.0
290
     0
  0
SCALE
  5
5D
102
{ACAD_REACTORS
330
47
102
}
330
47
100
AcDbScale
 70
     0
300
3/32" = 1'-0"
140
0.09375
141
12.0
290
     0
  0
SCALE
  5
5E
102
{ACAD_REACTORS
330
47
102
}
330
47
100
AcDbScale
 70
     0
300
1/8" = 1'-0"
140
0.125
141
12.0
290
     0
  0
SCALE
  5
5F
102
{ACAD_REACTORS
330
47
102
}
330
47
100
AcDbScale
 70
     0
300
3/16" = 1'-0"
140
0.1875
141
12.0
290
     0
  0
SCALE
  5
60
102
{ACAD_REACTORS
330
47
102
}
330
47
100
AcDbScale
 70
     0
300
1/4" = 1'-0"
140
0.25
141
12.0
290
     0
  0
SCALE
  5
61
102
{ACAD_REACTORS
330
47
102
}
330
47
100
AcDbScale
 70
     0
300
3/8" = 1'-0"
140
0.375
141
12.0
290
     0
  0
SCALE
  5
62
102
{ACAD_REACTORS
330
47
102
}
330
47
100
AcDbScale
 70
     0
300
1/2" = 1'-0"
140
0.5
141
12.0
290
     0
  0
SCALE
  5
63
102
{ACAD_REACTORS
330
47
102
}
330
47
100
AcDbScale
 70
     0
300
3/4" = 1'-0"
140
0.75
141
12.0
290
     0
  0
SCALE
  5
64
102
{ACAD_REACTORS
330
47
102
}
330
47
100
AcDbScale
 70
     0
300
1" = 1'-0"
140
1.0
141
12.0
290
     0
  0
SCALE
  5
65
102
{ACAD_REACTORS
330
47
102
}
330
47
100
AcDbScale
 70
     0
300
1-1/2" = 1'-0"
140
1.5
141
12.0
290
     0
  0
SCALE
  5
66
102
{ACAD_REACTORS
330
47
102
}
330
47
100
AcDbScale
 70
     0
300
3" = 1'-0"
140
3.0
141
12.0
290
     0
  0
SCALE
  5
67
102
{ACAD_REACTORS
330
47
102
}
330
47
100
AcDbScale
 70
     0
300
6" = 1'-0"
140
6.0
141
12.0
290
     0
  0
SCALE
  5
68
102
{ACAD_REACTORS
330
47
102
}
330
47
100
AcDbScale
 70
     0
300
1'-0" = 1'-0"
140
12.0
141
12.0
290
     0
  0
ENDSEC
  0
EOF
